&title=ハレルヤ☆エッサイム
&artist=富田美憂; 大西沙織; 大空直美; 花澤香菜
&first=0.18
&des=偽りの譜面製作者《ノートデザイナー》
&lv_4=10+
&lv_5=13
&inote_4=(200)
{1},
{4},,
{4}3h[4:3],,,5h[4:3],
{4},,4h[4:3],,
{4},6qq1[4:7],,,,,,,,,
{8}4,,4,,17,,1b/7b,,
{8}3h[4:1]/5h[4:1],,,3h[4:1]/5h[4:1],,,35,,
{8}8b,,8b,,5,,5,,
{8}6h[4:1]/4h[4:1],,,6h[4:1]/4h[4:1],,,64,,
{8}1b,,1b,,3,,3,,
{8}2h[4:1]/4h[4:1],,,3h[4:1]/5h[4:1],,,46,,
{8}8b,,8b,,2/5,,7/4,,
{8}34,,2b,,56,,7b,,
{8}1,1<5[16:4]*>5[16:4],,,,,,35,
{8},7,7h[4:1],,3h[4:1],,5-8[8:1],,
{8}1-4[8:1],,,,,27,,64,
{8},2,2h[4:1],,6h[4:1],,4-8[8:1],,
{8}7-3[8:1],,,,,18,,24,
{8},5,5h[4:1],,1h[4:1],,7-4[8:1],,
{8}3-8[8:1],,,,,27,,64,
{8},2h[4:1],,8h[4:1],,1,1h[4:1],,
{8}7,7,3,3,,4/6,46,4h[8:11]/6h[8:11],
{4},,,,,,{8},24,24,4h[8:11]/2h[8:11],
{1},
{8},,,,,17,17,1h[8:11]/7h[8:11],
{1},
{8},,,,,38,38,8h[8:9]/3h[8:13],
{8},,,,,,,,
{8},,,,,,,,
{8}8h[4:1],,4,,3,4,2,,
{8}1-5[8:1]/6-8[8:1],,,,,34,34,1b,
{8},3,5,,6,5,7,,
{8}8-4[8:1]/3-1[8:1],,,,,65,65,8b,
{8},3,5,4,6h[4:1],,1,,
{8}6,4,5,3h[4:1],,8h[4:1],,3,
{8}3h[4:1],,5,5h[4:1],,1,1w5[8:4],,
{16},,,,,,,,,,,,,,,,
{4}2qq5[4:5]/6,,6,,
{2}6,6,
{4}7pp4[4:5]/3,,3,,
{2}3,3,
{4}2h[2:1]/4h[2:1],,,1b,
{4}7h[2:1]/5h[2:1],,,8b,
{8}2b/4b,,5b/4b,,5b/7b,,1b,1b,
{8},8bV62[16:6]/2bV48[16:6],,,,,,,
{16}6h[4:1],,,,4,,4h[16:4],,,,8,,8qq4[16:5],,,,
{24}2b,,,,,,2b,,,{16},,3h[4:1],,,,5h[4:1],,,,
{16}4h[4:1],,,,8,,8h[4:1],,,,2,,2V48[16:5],,,,
{24}7b,,,,,,7b,,,{16},,6h[4:1],,,,4h[4:1],,,,
{16}8h[4:1],,,,3,,3h[4:1],,,,6,,6pp1[16:5],,,,
{24}3b,,,,,,3b,,,{8},34,,56,,
{4}1-5[8:1],,8-4[8:1],,
{16}2V47[2:1]/6V83[2:1],,,,,,,,,,,,,,,,
{16}3h[4:1],,,,5,,5h[16:4],,,,1,,1pp5[16:5],,,,
{24}7b,,,,,,7b,,,{16},,6h[4:1],,,,4h[4:1],,,,
{16}5-8[8:1],,,,1,,1h[4:1],,,,7,,7V51[16:5],,,,
{24}2b,,,,,,2b,,,{16},,3h[4:1],,,,5h[4:1],,,,
{16}1h[4:1],,,,6,,6h[4:1],,,,3,,3qq8[16:5],,,,
{24}6b,,,,,,6b,,,{8},65,,43,,
{24}1-5[8:1]/8,,,,,,7b,,,,,,8-4[8:1]/1,,,,,,2b,,,,,,
{8}3V51[16:5]/7V15[16:5],,,,,,,,
{24}2^5[8:1]/1,,,,,,1b,,,,,,7^4[8:1]/8,,,,,,8b,,,,,,
{8}3V15[8:3]/6V84[8:3],,,,,,,36,
{8},7,7h[4:1],,3h[4:1],,5^8[8:1],,
{8}1^4[8:1],,,,,27,,64,
{8},2,2h[4:1],,6h[4:1],,4p8[8:1],,
{8}7p3[8:1],,,,,18,,24,
{8},5,5h[4:1],,1h[4:1],,7v4[8:1],,
{8}3v8[8:1],,,,,27,,64,
{8},2h[4:1],,8h[4:1],,1,1h[4:1],,
{8}5w1[5:1],,,,,37,26,15,
{8}4-7[8:1]/8-3[8:1],,,,4-1[8:1]/8-5[8:1],,,,
{16}3,,2,,1,,8h[16:8]/7h[16:8],,,,,,,,,,
{1},,
&inote_5=(200)
{1},
{4},,
{4}3h[4:3],,,1h[4:3],
{4},,8h[4:3],,
{4},6>7[4:7]*<5[4:7],,,,,,,,,
{8}3h[8:1]/7h[8:1],,3h[8:1]/7h[8:1],,4-1[8:1]/6-3[8:1],37,46,,
{8}2-5[8:1],,6,6-1[8:1],,3,3>6[4:1],,
{8}5b-1[8:1],,5b,,4,4,6,5,
{8}7-4[8:1],,3,3-8[8:1],,6,6<3[4:1],,
{8}4b-8[8:1],,4b,,5,5,3,4,
{8}2-5[8:1],,8,8-4[8:1],,3,3>6[4:1],,
{8}5b-1[8:1],,5b,,2h[8:1],4,7h[8:1],5,
{8}1-5[8:1],,1,,4-2[8:1]/6-8[8:1],,46,,
{8}1,1-5[8:1],,5v4[8:1]*v6[8:1],,,,3h[4:1],
{8},7-5[8:1],7,1-3[8:1],1,4,5,46,
{8}7^4[8:1],8^3[8:1],7,8-4[8:1],,18,,3h[4:1],
{8},5-8[8:1],5,4-1[8:1],4,8,7,26,
{8}3^8[8:1],4^7[8:1],3,4-1[8:1],,46,,5h[4:1],
{8},3-1[8:1],3,5-7[8:1],5,8,1,28,
{8}3-5[8:1],8-6[8:1],3,8-4[8:1]*V25[8:1],,8,,6h[4:1],
{8},2-4[8:1],2,8-6[8:1],8,5,4,53,
{8}2-5[8:1],4-7[8:1],2,4,,4v1[8:1]/6v1[8:1],37,4>5[4:4]/6<5[4:4],
{4},,,,,,{8},3V16[8:9]/6,3/6V83[4:4],36,
{1},
{8},,,,,1-4[8:1]/8-5[8:1],27,18,
{1},
{8},,,,,1-5[8:1]/7-3[8:1],,,
{8},4,4h[4:1],,6h[4:1],,5h[4:1],,
{8}7h[4:1],,2h[4:1],,{16}8,7,6,5,4,3,2,1,
{8}8-5[8:1],,8,,3-8[8:1],4,3,,
{8}7-5[8:1],4-8[8:1],,,,7-5[8:1]/1-3[8:1],6/2,7b/1b,
{8},3h[8:1],5,4h[8:1],6v1[8:1],,2,,
{8}8-5[8:1],4-1[8:1],,,,8-5[8:1]/2-5[8:1],3/7,8b/2b,
{8},1h[8:1],5h[8:1],3h[8:1],7-3[8:1],,73,,
{8}1V75[16:3]*V35[16:3],,,,,4-1[8:1],,45,
{8}6-2[8:1],,68,1-4[8:1],,71,6h[8:2],,
{16}1,2,3,4,5pp5[16:4]*qq5[16:4],6,7,8,,,,,,,,,
{1}1b>1[4:5]*<1[4:5],
{1},
{2}2V47[4:2],7V52[4:2],
{2}2V47[4:2],7,
{4}2-8[8:1]/1-5[16:3],,,7b,
{4}1s5[8:2]/7s3[8:2],,,2b,
{8}5b-7[8:1]/4b-8[8:1],,5b-1[8:1]/4b-2[8:1],,5b/4b,,6b,2b-6[8:1],
{8},8b-4[8:1],,1b,1bs5[8:1],,,,
{16}6-1[8:1],,,,4,,4-8[16:2],,,,7,,7^4[16:2],,,,
{24}1bw5[8:1],,,,,,1b,,,{16},,3-5[8:1],,8-6[8:1],,3,,8,,
{16}4-8[8:1],,,,6,,6-1[16:2],,,,2,,2v5[16:2],,,,
{24}8bw4[8:1],,,,,,8b,,,{16},,6-4[8:1],,1-3[8:1],,6,,1,,
{16}7-3[8:1],,,,4,,4-1[16:2],,,,5,,5^8[16:2],,,,
{24}1bw5[8:1],,,,,,1b,,,{8},34,3,56,6,
{4}8q4[8:1]/1^4[8:1],81,1p5[8:1]/8^5[8:1],18,
{16}71,2,3,4,8,7,6,5,4q8[8:1]/8q4[8:1],,,,,,,,
{16}6-1[8:1],,,,5,,4-8[16:2],,,,6,,7^4[16:2],,,,
{24}8b-4[8:1],1,2,3,,,8b,,,{16},,3-5[8:1],,6-8[8:1],,3,,6,,
{16}4b-8[8:1],,,,5,,6-1[16:2],,,,3,,2^5[16:2],,,,
{24}1b-5[8:1],8,7,6,,,1b,,,{16},,6-4[8:1],,3-1[8:1],,6,,3,,
{16}7-3[8:1],,,,3,,4-1[16:2],,,,6,,5^8[16:2],,,,
{24}1b-5[8:1],2,3,4,,,1b/5b,,,{8},34,2,56,7,
{24}1-5[8:1]/8,2,3,4,,,1b,,,,,,8-4[8:1]/1,7,6,5,,,8b,,,,,,
{8}35,2,46,7,25,1,47,8,
{24}2-6[8:1]*v5[8:1]/1,3,4,5,,,2b,,,,,,7-3[8:1]*v4[8:1]/8,6,5,4,,,7b,,,,,,
{8}27,1q4[8:3]/8p5[8:3],,,,,,3h[4:1],
{8},7-5[8:1],6,1-3[8:1],2,4,5,46,
{8}7^4[8:1],7,8^3[8:1],8-4[8:1],,,,3h[4:1],
{8},5-8[8:1],6,4-1[8:1],3,8,7,26,
{8}3^8[8:1],3,4^7[8:1],4-1[8:1],,,,5h[4:1],
{8},3-1[8:1],2,5-7[8:1],6,8,1,28,
{8}3-5[8:1],3,8-6[12:1],8-3[8:1]*V24[8:1],,,,5h[4:1],
{8},2-4[8:1],3,8-6[8:1],7,5,4,53,
{8}2-5[8:1],1^6[8:1],2,1v4[8:1]*v6[8:1],,1b,,,
{8}3-1[8:1]/5-1[8:1],4,35,,6-8[8:1]/4-8[8:1],5,64,,
{16}3,5,2,6,1,7,8z4[8:1],,,,,,,,2<4[1:1]/6<4[1:1],,
{1},,
