&title=AIZO
&artist=King Gnu
&first=0
&des=五条悟 vs 宿傩
&lv_6=13+
&inote_6=(190){4},,,,,,,,{2}2x-5[8:1]/6x-4[8:1],
2x-5[8:1]/6x-4[8:1],
{8}6x/2x-6[8:1],2x/6xV41[4:1],{4}2x/6x,{2}8-4[8:1],
2x-5[8:1]/6x-3[8:1],2x-5[8:1]/6x-3[8:1],
{8}2x/6x-2[8:1],6x/2xV48[4:1],{4}6x/2x,{2}1-6[8:1]*-4[8:1],
7x-4[8:1]/2x-5[8:1],7x-4[8:1]/2x-5[8:1],
{4}2xV46[4:1],6x-3-1[4:1],{2}1xw5[8:1],
7x-4[8:1]/3xv8[8:1],7x-4[8:1]/3xv8[8:1],
{16}1,2,3,4,6,7,8,1,4,3,2,1,5,6,7,8,
{2}1bw5[8:1],{16}3,7,3,7,3,7,3,7,
{4}2b-5[8:1],6-1[8:1],4-8[8:1],7,
6V47[4:1],{8}3,1-5[8:1],,8/1,{4},7-4[8:1],
3-8[8:1],5-1[8:1],2,
3V52[4:1],{8}6,8-4[8:1],,1/8,{4},2V46[4:1],
6-3-1[4:1],1V75[4:1],5V38[4:1],
1,{8}7,7-5[8:1]*-3[8:1],,7,{4},4-8[8:1],
4w8[8:1],4,{8}2/6,6/2-6[8:1],
{4}2/6-2[8:1],{8}8,8w4[8:1],,{64}B8/B4,Cf,{32},,,,,,,,,,,{4}3b/7b-4[8:1],
1-5[8:1],6-1[8:1],2,
3V52[4:1],{8}6,8-4[8:1],,1/8,{4},2-5[8:1],
8-4[8:1],3-8[8:1],7,
6V47[4:1],{8}3,1-5[8:1],,8/1,{4},7V53[4:1],
3-6-8[4:1],8V24[4:1],4V61[4:1],
8,{8}2,2-4[8:1]*-6[8:1],,2,,8/7,
2/5,5-1[8:1]/2-4[8:1],,5/2,,8<2b[8:3],,1,
1h[4:1],{4},{8}8,{32}8bx,1bx/7bx,2bx/6bx,3bx/5bx,{8}4bxV63-7-2-8b[8:13],{4},{1}Ch[2:3],
,{2}2/7h[1:1],
B7,
3h[1:1],B3,
5h[1:1],D7,
4h[1:1],D3,
8V64[2:1],1V38b[2:1],
{1}Ch[1:1],
{2}8V24[2:1],6V48b[2:1],
2xh[2:1],C,
{4}5/7h[4:1],5,4/6h[4:1],4,
3/5h[4:1],3,{8}2,4,1,1,
{4}4/2h[4:1],4,5/3h[4:1],5,
6/4h[4:1],6,{8}7/5,7/5,8/4,8/4,
{4}3h[4:1],E5,6h[4:1],C,
8/1,{8}6,3,4,3,2/5,5/2,
{4}2/5,{8}3/4,4,2,2,1/8,1/8,
{32}E2/Cf,E3,E4,E5,E6,E7,E8,E1,E2,E3,E4,E5,E6,E7,E8,E1,E2,A2,A3,A4,A5,A6,A7,A8,{4}A1/D2/E2f,
5x-8[8:1],6x/5x-2[8:1],1x-6[8:1]*-4[8:1],1x,
{8}2/5,2,7/4,7,{2}1-5[8:1]/8-4[8:1],
{4}1x-4[8:1],2x/1x-6[8:1],5x-2[8:1]*-8[8:1],5x,
{8}7/4,7,2/5,2,{2}8-4[8:1]/4-8[8:1],
{4}7x/5x-8[8:1],5x/4x-1[8:1],4x/2x-6[8:1]*-5[8:1],2x,
{8}3/8,3,6/1,6,{2}4-7[8:1]/5-2[8:1],
{4}1x-5[8:1]/8x-6[8:1],1x-3[8:1]/8x-4[8:1],8x-6[8:1]/1x-5[8:1],1x/8x,
{8}1/8,1/8,2/7,7/2,{4}6-1b[8:1]/3-8b[8:1],3b/6b,
{16}2,6,2,6,2,6,2,6,2x,7x,3x,8x,{4}4xz8[4:1],
{2}4x/8x,{16}8x-4b[8:1],2x,6x,4x,{4}8bx,
1x>4[8:1],{24}4,5,6,7,{12},{4}2x>5[8:1],{24}5,6,7,8,{12},{4}3x/7x-4-6[4:1],
{8}7/8,1-6[8:1]*-5[8:1],,1,{4},4x>1[8:1],
{24}8,7,6,5,{12},{4}3x>8[8:1],{24}7,6,5,4,{12},{4}5x/2x-5-3[4:1],
{8}2/1,7-5[8:1]*-3[8:1],,7,,2x,
{16}8x-4[8:1],7x,6x,5x,{4}4x/8x,{16}1x-5[8:1],8x,7x,6x,{4}5x/1x,
7-4[8:1],{8}7/8,1w5[8:1],,1,,7x,
{16}1x-5[8:1],2x,3x,4x,{4}5x/1x,{16}8x-4[8:1],1x,2x,3x,{4}4x/8x,
2/6,{8}3/7,3v8[8:1]/7-4[8:1],,3b/7b,{4},8x<5[8:1],
{24}5,4,3,2,{12},{4}7x<4[8:1],{24}4,3,2,1,{12},{4}6x/2x-5-3[4:1],
{8}2/1,8-3[8:1]*-4[8:1],,8,{4},5x<8[8:1],
{24}1,2,3,4,{12},{4}6x<1[8:1],{24}2,3,4,5,{12},{4}4x/7x-4-6[4:1],
{8}8/7,2-4[8:1]*-6[8:1],,2,,7x,
{16}1x-5[8:1],2x,3x,4x,{4}5x/1x,{16}8x-4[8:1],1x,2x,3x,{4}4x/8x,
2-5[8:1],{8}2/1,8w4[8:1],,8,,2,
3/4,7,6/5,1,3/4,8,6/5,2/7,
{16}1,8,1,8,1,8,1,8,{32}1x,2x,3x,4x,5x,6x,7x,8x,{4}1bxw5b[8:1],
{64}1b/B5/B1,Cf,
E
