&title=Looking for stella
&artist=Junk
&first=0
&des=Ilot missing Hoppe.
&lv_5=13+
&inote_5=(144){4},,,,{8}7/3,
3,5,6,,3,5,6,
,3,5,6,{2}1h[4:1]/7>6[8:11],
{8}E5,{4},{8}E1,{4},C,
{8},2,3,4,5,4,5,6,
3/7,7,2,3,,7,2,3,
,7,2,3,{2}6h[4:1]/4<3[1:1],
{8}E1,{4},{8}E5,{4},C,
{16}4,5,4,5,4,5,4,5,{8}3h[8:1],{16}6,5,7,5,7,5,
{8}8b-2[8:1],8,4,3,3-1[8:1],{16}5,5,{8}3,5,
7-5[8:1],7,4,3,2-4[8:1],{16}8,8,{8}2,8,
7<4[8:1],8,1,2<7[8:1],3,4,5>2[8:1],6,
7-1[8:1],7,2,3,4-6[8:1],{16}8,8,{4}4,
{8}8/4,4,3/7,7,2/6,2,1/5,5,
6/2,6/2,3/7,3/7,4/8,4/8,7/3,7/3,
{16}2,6,2,6,1,5,1,5,1,5,2,6,3,7,4,8,
{64}5bxV38b[2:1],1xV74[64:31],{4},,,{16},,,{32},{8}7/1,
{16}3,4,,3,{8}5,2/8,{16}6,5,,6,{8}4,
7/3,{16}1,8,,1,{8}7,6/4,{24}3,5,3,{8}5,3,
2h[4:1],8,7,6h[4:1],5,4,3h[4:1],1,
8<5[8:1],2,1,8>3[8:1],6,7,8,{16}7,5,
{8}6,{16}5,4,,5,{8}3,7/1,{16}4,5,,4,{8}6,
3/7,{16}8,1,,8,{8}2,3/5,{24}6,4,6,{8}4,7,
7h[4:1],1,2,3h[4:1],4,5,{16}6/4,3,2,1,
8bx/7bx,{8},{16}6bx/5bx,{8},4bx/3bx,{16},2bx/1bx,{8},8bx-4[8:1]/7bx-4[8:1],6bx/1bx,
{4}7bx/8bx>8[1:1],C,,E7,
8>8[1:1],E2,,E7,
8>6[4:3],C,,E7,
{16}3h[16:3],{8},{16}4h[16:3],{8},5<1[4:1],{2},{16}7/3h[16:3],
{8},{16}5>6[16:41],{8},{32}E1,D1,{1},{4},{16},,,B3,
B4,
{1}E5,
,{8}5,
{16}3,4,,5,{8}4,{16}3,4,,5,{8}4,3,
6,{16}4,5,,6,{8}5,{16}4,5,,6,{8}5,4,
7,{16}1,8,,7,{8}1,{16}1,8,,7,{8}1,1,
5,{16}4,5,,6,{8}4,{16}3,5,,5,{8}4,4,
{16}6,5,6,4,5,4,6,5,6,4,5,4,{8}6,7/3,
{16}3,4,3,5,4,5,3,4,3,5,4,5,{8}3,2/6,
{16}6,5,7,3,4,2,6,5,7,3,4,2,{8}6,7/1,
{16}2,4,3,7,5,6,2,4,3,7,5,6,1-5[8:1],8,2,7,
{32}1b<4[4:1],Cf,{16},,,{4}3,2,{8}1/4V61[4:1],{16}1,2,
{4}3,3>6[4:1],{8}3h[4:1],{4},{8}5,
{4}4qq8[8:3],{8}7,7<4[16:3],{4},1pp4[8:3],
{8}1/5,{4},{16}6,7,{4}8/4x>8[4:1],{8}6,5,
{4}4,3/5-2[8:1],7-4[8:1],1<6[8:1],
{16}3h[16:3],{8},{16}4h[16:3],{8},5,{16}7h[16:3],{8},{16}8h[16:3],{8},1,
{4}3/4<1[2:1],2,3,{8}4,{16}7/3,6/2,
{4}5pp1[8:3]/1pp5[8:3],{2},{4}7/3,
{16}1h[8:1]/2h[8:1],{8},{16}7h[8:1]/3h[8:1],{8},6h[8:1]/5h[8:1],{16},2h[8:1]/1h[8:1],{8},7/3,6/5,
{64}6bxqq8[2:1],5bxpp3b[64:31],{4},,,{16},,,{32},{16}8h[8:1]/7h[8:1],
{8},{16}2h[8:1]/6h[8:1],{8},3h[8:1]/4h[8:1],{16},7h[8:1]/8h[8:1],{8},2/6,3/4,
{64}4bxqq7[2:1],3bxpp8b[64:31],{4},,,{16},,,{32},{8}1/6,
1/6,7,7,2/8,2/8,3,3,
4/8,8/4,7/3,7/3,6/2,6/2,1/5,5/1,
{16}8,7,1,6,2,5,3,4,2,1,3,8,4,7,5,6,
{4}5bw1[4:1],{2},{4}8/1-4[12:1],
{8}1b/8b,{16}6<1[12:1],5,,5,{8}6,{16}3-8[12:1],4,2,4,{8}3,6,
7/5,{16}7>2[12:1],5,,5,{8}7,{16}4-1[12:1],5,3,5,{8}4,6,
7/8,{16}7<4[12:1],8,,8,{8}7,{16}2-5[12:1],1,3,1,{8}2,7,
8/6,{16}6>3[12:1],8,,8,{8}6,{16}1-4[12:1],8,2,8,{8}1,6,
5/3,{16}3-8[12:1],4,2,5,{8}3,{16}6-1[12:1],5,7,4,{8}6,3,
8/2,{16}7-4[12:1],8,6,1,{8}7,{16}2-5[12:1],1,3,8,{8}2,8,
{16}7bx,7x,3,6bx,6x,2,5bx,5x,1,4bx,4x,8,{8}4bx,7/1,
{4}4bw8[8:3],{2},{4}6-1[12:1]/2-5[12:1],
{32}6b/2b,Cf,{16},,,{8}8xh[8:1],{16}4,4,7-3[12:1],3,6,4,{8}7,{16}1,1,
4<7[12:1],2,5,1,{8}4,{16}3,3,8,5,6,2,{8}1-4[12:1]*-6[12:1],3/7,
{4}1,{8}3xh[8:1],{16}5,5,2-6[12:1],6,3,5,{8}2,{16}8,8,
5,7,4,8,{8}3h[8:1],{16}5,6,{4}7-4[12:1]/2-8[12:1],7-2[12:1]/2-5[12:1],
2/7,{8}8xh[8:1],{16}5,5,1x<6[12:1],2,8,3,{8}1,{16}2,2,
4x-8[12:1],3,5,2,{8}4,{16}3,3,7x<4[12:1],4,8,3,{8}7,{16}2,2,
5,1,6,2,7,3,8,4,7,3,6,2,5,1,4,8,
{32}5x/1x,6x/2x,7x/3x,8xh[32:9]/4xh[32:9],{4},{8},{64}5x-8[12:1],4x-1b[192:13],{16},,,{32},{4}5/4,
{16}2b,8,2,6b,4,6,2b,8,2,7b,5,7,3b,1,3,7b,
5,7,2b,8,2,6b,4,6,{8}2b,3bh[16:1]/6h[16:1],4bh[16:1]/7h[16:1],5bh[16:1]/8h[16:1],
{16}6bxh,8,2h,5b,4h,7,6bxh,8,2h,5b,4h,7,6bxh,8,2h,5b,
4h,7,6bxh,8,2h,5b,4h,7,1bxh,8,2h,5,4h,7,1h,8,
{32}1bx,2x/8x,7x/3x,4xp3p4-1[32:117]/6xq7q6-1[32:117],
