&title=corps-sans-organes
&artist=Cybermiso
&first=0
&des=KoishiKnight
&freemsg=From Arcaea┓Level:13.4
&wholebpm=105
&first_1=
&first_2=
&first_3=
&first_4=
&first_5=
&first_6=
&amsg_first=
&tap_ofs=
&hold_ofs=
&slide_ofs=
&break_ofs=
&des_1=
&des_2=
&des_3=
&des_4=
&des_5=KoishiKnight
&des_6=
&amsg_content=
&lv_5=13
&inote_1=
&inote_2=
&inote_3=
&inote_4=
&inote_5=(105){1},
{4}2pp5[2:1]/8qq5[2:1],,,,
{16}4,,,6,,,7,,,,,,,,,,5,,,3,,,2,,,,,,,,,,4,,,6,,7,1,7,,,
{32}2/5,,3,4,2,,7,,3,,6,,{16}4h[16:1],8h[16:1],3h[16:1],7h[16:1],2h[16:1],6h[16:1],1w5[16:1],5h[16:1],
{16},,1b,,3,2/7,1/8,,6,5,,2,4,,3q5[4:1],,,7,,,1,,,,3,4,,7,5,,6p4[4:1],,,2,,,8,,,,7,5,,1,4,,3,,,,
{32}7/4,,6,5,7-4[16:1],,2,,5,,4,,
{16}7b/3,,1,8,7/5,,8,1,2/5,,3/7,,1w5[16:1],8,2,,
{16}1b<2[8:5],,7,,6,,5,,4v1[8:1],,,,,,,,
{16}8>7[8:5],,2,,3,,4,,5v8[8:1],,,,,,,,
{4}3^6[4:1],6^1[4:1],1s5[4:1],5>1[4:1],1<5[4:1],,
{16},,7/3,,4/5,2/6,1,,
{16}7>6[8:5],,6,,5,,4,,3v8[8:1],,,,3,,,,{16}2<3[8:5],,3,,4,,5,,6v1[8:1],,,,6b,,,,
{16}4/7,,6,2,5,,3/4,,2/5,,3,7,4,,5/6,,
{24}7,1,7,1,7,1,8,2,8,2,8,2,1,,,,,4,5,3,6,2,,,
{24}4/7,,3,6,3,5,1,,7,7,,4/6,{16},2,{24}3/5^8[16:1],,4,{8}7,2-6[16:1]/5,3,1/2,
{24}8,,4/7,7,,8/2,,,4,3,,5,{8}7,4/6,
{24}2>8[8:1]/8,,7,{8}1,2/5,,{24}7<1[8:1]/1,,2,{8}8,7/4-8[8:1],,4/6v1[8:1],5,6/2,3,{24}3,4,2,6,5,7,2,8,4,1,5,7,{4}3b/6b,
{24}1/8,,6,4,5,3,{16},8,1V35[16:1]/7,,{24}2,,6,{8}1,{24}8,,4,{8}7,
{24}6,,3,5,,6,4,,5,3,,4,{8}7,2,{12}8-4[8:1],3,,{8}8,{12}1s5[4:1],6,,{8}1,8,,
{24}8,,6,4/7,,3,{8}2/5,{24}7,4,7,1,,2,4,,6,8,,3,{8}1,
{24}2/4,,8,{8}6,{24}5/7,,1,3,,2/5,{16},4,7,,{24}3,5,4,{8}6,3/8,2,
{24}5/1-5[16:1],,7,,,1/8,,,7,4,,3,5,,6,{8}4,
{24}7<1[8:1]/1,,2,{8}8,7/4,,{24}2>8[8:1]/8,,7,{8}1,2/5-1[8:1],,
5/3v8[8:1],4,3/7,6,{24}6,5,7,3,4,2,7,1,5,8,4,2,6,3,5,{48}4,5,4,{16},
{24}7/3,,5,5,,2/6,,4,4,8V64[16:1],,6,{8}3/7,8,2,1/8,
{24}3,5,4,6,,3/8,,,5,7,,4,{8}2,6,
{24}1,3,2,8,6,7,2,4,3,7,5,6,3,4,2,6,5,7,3,5,1,6,4,8,
{24}2,5,3,7,4,6,1,5,2,8,4,7,3,1,2,6,8,7,4,8,2,5,1,7,
{4}3b/6b,{12}7,5,6,{4}4,{12}5,2,4,{4}3,{12}8,2,7,{4}1s5[8:1],5,
{4}6,{12}2,4,3,{4}5,{12}4,6,5,{4}6<4[8:5],5,5,5,
{4}7p2[8:3],{12}3,4,5,{4}6,{12}3/6,5,4,{4}3p6[8:3]/6,{12}7,8,1,{4}2,4,
{16}3/7-4[16:1],6,1-5[16:1]/5,2,4/7,3,1/6,,{16}6/2-5[16:1],3,8-4[16:1]/4,7,5/2,6,8/3,,
{16}2/5,3,4/7,6,{32}1,2,3,4,{64}5/8,7,6,5,4,3,2,1,
{8}4/8,2/6,{24}4,5,4,{8}3b/7b,
{16}2h[8:1],,5,3h[8:1],,8,{32}6,5,6,5,{16}7,7h[16:1],4,6h[8:1],,1,{32}3,4,3,4,{16}2h[8:1],,6,3h[8:1],,8,{32}6,5,6,5,{16}7h[16:3],3,2,1h[16:3],6,5,4,,
{32}6,,4/7,,3,5,2,,6,5,6,5,7,,,,3,,5/2,,6,4,7,,3,4,3,4,2,,,,
{16}6,7,3,2,5,6,4,3,7,6,1,2/5,{32}3,6,4,5,{8}1,
{16}7h[8:1],,4,6h[8:1],,8,{32}2,4,3,4,{16}2,2h[16:1],5,3h[8:1],,1,{32}7,5,6,5,{16}7h[8:1],,4,6h[8:1],,8,{32}2,4,3,4,{16}2h[16:3],6,7,8h[16:3],3,4,5,,
{32}3,,5/1,,6,4,8,,3,4,3,4,1,,,,6,,4/8,,3,5,1,,6,5,6,5,8,,,,
{16}3,2,6,7,4,3,5,6,2,3,{32}8w4[16:1],1,8,,{24}2,7,1,{8}8b,
{8}1/6,{16}2h[16:3]/8,7,6,5h[16:3],4,3,{16}2-7[16:1],6-3[16:1],1-5[16:1],7,2,6,{8}1,
{16}3h[16:3]/8,7,6,5h[4:1],4,3,2,1,,3/7,1-5[16:1]/5,2/6,3/7,4/8,{8}1b/5b,
{8}8/3,{16}7h[16:3]/1,2,3,4h[16:3],5,6,{16}7-2[16:1],3-6[16:1],8-4[16:1],2,7,3,{8}8,
{16}6h[16:3]/1,2,3,4h[4:1],5,6,7,8,,6,3,5,4,{32}8,1,{16}7,7,
{16}1^4[16:1]/5,2,3,,1-6[16:1]/5,6,7,8,1/5,4,3-1[16:1],,{32}3,4,2,4,{8}3,
{16}8^5[16:1]/4,7,6,,8-3[16:1]/4,3,2,1,8/4,5,6-8[16:1],,{32}6,5,7,5,{8}6,
{16}2^5[16:1]/6,1,8,,7-4[16:1]/2,8,1,,2-5[16:1]/7,1,8,,7^4[16:1]/2,8,1,,
{16}7/3,2,1,8,{32}7,2,5,4,6,3,{48}8,1,8,{16}1,1,1,1,{32}1w5[16:1],1,1,1,{8}1,
{8}1>8[16:3],{16}3,7,{4}1w5[16:1],{8}1<2[16:3],{16}7,3,{4}1w5[16:1],{8}1>8[16:3],{16}3,7,{4}1w5[16:1],{8}1<2[16:3],{16}7,3,{4}1-5[16:1],
{16}1/8-4[16:1],6,4,7,{8}8/1-5[16:1],3,{16}1/8,7,4-1[16:1]*-7[16:1],6,4,4,{8}4,
{16}8-3[16:1]*-5[16:1],3,1,6,{8}8,{24}2,,6,1-5[16:1],,3,{16}8,2,{8}7/1,{24}8,1,8,
{8}3/7,{24}1/5,,6,{8}4/7,{24}8,,2,3/5,,7,1s5[8:1]/6,,2,{8}8/3,1/5,{12}7,6/4,,
{24}2/5,,3,8,,6,1,8,2,{16}7^4[16:1],3,{8}6,1/7,
{8}8-4[16:1],{24}7,,2,{8}8,{24}3,7,,1-5[16:1],,4,,,8,{8}1,{24}6,5,,{24}7-4[16:1],,5,,8,1,{12}7,3,1,{24}2-5[16:1],,4,,1,8,
{4}2,{16},3/7,,,{4}1,{16},2/6,,,{4}8b,{1},E
&inote_6=
