&title=宙天
&artist=t+pazolite,かねこちはる
&first=0.024
&des=
&des_4=
&des_5=Neolser
&lv_4=1
&lv_5=14
&inote_4=
&inote_5=(125){4},{12},,,,,,,,,8xh[12:5]/E1,
E8,E7,E6,E5,E4,3xh[12:5]/E3,E2,E1,E8,E7,E6,
5xh[12:5]/E5,E4,E3,E2,E1,E8,6x,5,4,3,4,5,
{4}6qq3[4:5],{8},,,,E8,E1,
{2}E2,C,
{4}2qq7[4:5],{8},,,,E4,E5,
{2}E6,C,
{4}6qq3[4:5],{8},,,,E8,E1,
{2}E2,{8}C,{32},,,,,,,,8bx<7-5>4-2<1-3<4-6<7-1q5q1[3:5]b/1bx>2-4<5-7>8-6>5-3>2-8p4p8[3:5]b,7bx/2bx,6bx/3bx,5bx/4bx,
{1},,{8}3/6-4[8:1],
{16}6/1h[8:1],6,{8}6,3,6/3-5[8:1],{16}3/8h[8:1],3,{8}3,7,
2/7-1[8:1],{16}7/4h[8:1],7,{8}7,2,7/2-8[8:1],{16}2/5h[8:1],2,{4}2,
{16}8,7,6,5,{4}8bh[4:1]/4h[4:1],{16},3,2,1,{4}8h[4:1]/4bh[4:1],
{16},B3,B7,E2,{8}E6,4h[4:1],7p3>2-6[4:1]*-1[16:1],7,{4}7b,
{8}3-5[8:1],{16}3/8h[8:1],3,{8}3,6,3/6-4[8:1],{16}6/1h[8:1],6,{8}6,2,
7/2-8[8:1],{16}2/5h[8:1],2,{8}2,7,2/7-1[8:1],{16}7/4h[8:1],7,{4}7,
{16}1,2,3,4,{4}1bh[4:1]/5h[4:1],{16},6,7,8,{4}1h[4:1]/5bh[4:1],
{16},B6,B2,E8,{8}E4,5h[4:1],2q6<7-3[4:1]*-8[16:1],2,{4}2b-4-6[8:1],
{8}2b,{16}E8,B2,,E7,,E4,,B8,,E1,,B5,E3,B8,
{6}Ch[4:3],{24}E6,E5,{4}E4,{24},,,,E4,E5,{4}E6,
{8}5b,{16}B3,B5,,E4,,B7,,B1,,E1,,B4,E7,B1,
,,,,,,{8}4b/5b,{4}4bqq3[16:3]/5bpp6[16:3],4b-1<8z4[8:7]/5b-8>1s5[8:7],
{1}4b/5b,
{16}5bx,4,5,3,5,4,5,4,6bx,4,5,4,5,4,5,4,
{24}5bx,4x,3x,2x,1x,8x,7x,6x,5x,4x,3x,2x,1x/4bx,5x,6x,7x,8x,1x,2x,3x,4x,5x,6x,7x,
8x/4x,1x/5x,2x/6x,3x/7x,4x/8x,5x/1x,{4}2xq7[8:1]/6xq3[8:1],6x-4[16:1]/2x-8[16:1],6x/2x,
{8}5bh[16:1]/6bh[8:1],{16}5xh[8:1],6xh[8:1],,5xh[8:1],{8}6xh[16:1],4bh[16:1]/3bh[8:1],{16}4xh[8:1],3xh[8:1],,4xh[8:1],{8}3xh[16:1],
8bh[16:1]/7bh[8:1],{16}8xh[8:1],7xh[8:1],,8xh[8:1],{8}7xh[16:1],1bh[16:1]/2bh[8:1],{16}1xh[8:1],2xh[8:1],,1xh[8:1],{8}2xh[16:1],
{16}6b,6,6,4,4h[16:3],5h[16:1],,6h[16:5],{8}3h[16:1],2h[16:1],{16}2b,1,{8}2,
{16}7b,8,{8}7,{16}3-7[16:1],4,{8}3<5[16:1]*-5[16:1],3>2<1[16:1]*-1[16:1],3w7[8:1],3,3,
{16},,3,4,{8}2pp4pp6[4:1],5,2/6p2-8[4:1],{16}5,5,A6,B4,E3,E2,
{8}A8,{16}6,5,{8}7qq5qq3[4:1],4,7/3q7-1[4:1],{16}4,4,{24}A3,E4,B5,E7,A7,A8,
{8}A1f,{16}3,4,{8}2pp4pp6[4:1],5,2/6p2-8[4:1],{16}5,5,A6,B4,E3,E2,
5/A8,4,6,3,{8}7qq5qq3[4:1],4,7/3q7-1[4:1],4,{24}5h[4:1]/A3,E4,B5,E7,A7,A8,
{8}A1f,{16}3,4,{8}2pp4pp6[4:1],5,2/6p2-8[4:1],{16}5,5,A6,B4,E3,E2,
{8}A8,{16}6,5,{8}7qq5qq3[4:1],4,7/3q7-1[4:1],{16}4,4,{24}A3,E4,B5,E7,A7,A8,
{16}A1f/4-6q2-8q4[2:1],4,{8}5h[8:1],4,7,6-4[8:1]b,5,{16}6,3x,2x,1x,
8xh[4:1]/4>4>4[2:1],4,{32},,,,,,,,A8,A7,A6,A5,A4,A3,A2,A1,A8,A7,A6,A5,{4}A4f/Chf[4:1],
,,,,,,C,
{8}7h[8:3],{16}5,4,
3,2,{8}1,{24},,,,,,,,,,B3/E3,,,B5/E5,,,{12}B7/E7/Ch[3:1],
,,,,,Ch[4:1],{48},,,,,,,,,,,,{16}E2/B1,E8/B7,{24}E3,B3,B4,
B5,B6,,,,,,,,,,,{8}1h[2:1],7,6,5,
{32}4>4[4:1],{4},,{16},,{32}D8/D2/B3/E3/B2/E4/B1/B5/B6/D5/B7/E8/B8/B4/D6/E1/D7/D1/A1/E2/A2/D3/A3/D4/A4/E5/A5/E6/A6/E7/A7/A8/Cf,,,,,,,,,,,,,,,,,,,{4}7bh[4:3]/6bh[4:3],
{16},,,,,,,,,,,,(75){16}7pp1<8-5-3[16:3],
{32}3,4,{16}2,{32}6,5,7b,,,,,,,2qq8>1-4-6[16:3],,6,5,7,,3,4,2b,
,,,,,,(85){16}7p3>2-8p4[16:3],{32}3,4,{16}2,{32}6,5,{16}7b,,,,2q6<7-1q5[16:3],{32}6,5,{16}7,{32}3,4,{16}2b,
,,,(95){16}7h[16:1]/8h[16:1],,7h[16:1]/6h[16:1],,6h[16:1]/5h[16:1],{48},,,,(105){12}2/1,{96},,,,,(115){32}2h[32:3]/3h[32:3],,,,,{8}4h[32:3]/3h[32:3],
{32},4h[32:3]/5h[32:3],,,,,(125){16}5/6,{32},,,7b,8,1,2,3,4,5,6,7,8,3b,2,1,8,7,6,5,4,3,2,1,
(200){4}8-4[8:1],8p4<5p1[2:1],8,2<1q5<6q2[2:1],
{8}2b,,,,,6h[4:1],{16},,4,4,
6,6,3,3,7,7,2,2,8,8,{8}1-5-1[4:1],,1/7<6p2[8:1],
,7,,4h[16:1],5-7[8:1],4-2[8:1],5-8[8:1],4-1[8:1],
5,4-8>1-7-2-6-3-5>4[8:7],{1},{32}D4,
A3,D3,A2,D2,A1,D1,A8,D8,A7,D7,A6,D6,A5,D5,A4,{16}8bh[16:3]/D4f,,,1b,
,7b,7,2,2,6,6,3,3,5,5,4,4,8,{8}8>1qq7[4:1],
,8/2-6-2[4:1],{32},,,,2b,B2,C,B6,A6,B6,C,B2,{16}8b/A2,7,6,3b,2,1,
7b,6,5,3b,2,1,5b,4,{2}1bh[8:5]/3V17[8:3],
{8},,3>2q6[16:3],3,{4}3/8-4[16:3],8/5-2[8:1],
5,{16}3b,3,6,6,2,2,7,7,1,1,8,8,
4,4<5qq3[4:1],,,,4/7-3-7[4:1],{32},,,,,,7b,B7,C,B3,A3,B3,C,B7,{16}4b/A7,3,2,
7b,6,5,3b,2,1,7b,6,5,1b,8,5h[16:7]/7V53[16:3],,,,,,,,,,,{8}3h[8:1]/5h[4:1],
,Chf[8:17],,,,,,,,,,,,,,,,,{4}B7/E7/B6/B8/B1/B2/B3/B4/B5/E3,
{8},,,,,,,,,,,8qq5[2:1],
{16},,,,,,,,,,,1pp4[2:1],
,,,,,,,,,,,,{1}6qq3<6[4:3],
{24},(50){24}2p5[24:5]*pp4[24:5],,,,,8,2,{48},,,,,,,,,,,(125){48},7h[3:1]/6h[3:1],,,,,,,,,,,,,,,,,,,,{12}4/5,
{48}3h[2:1]/2<4[4:1],1,8,7,{4},,{16},,,{48},{24}5b,4b,5b,
4b,5b,4b,5b,{6}4-2[12:1],4h[12:1],{24}8b,7,6,5,4/8b,7,6,5,4,3,2,1,
4b/8x-4[8:1],3,2,1xh[8:1]/8qq3[8:3],,,,,,A8,B8,C,3/E6,4/A6,5xh[24:7]/A7,E8,,,,,,{8}3bh[8:3],
{4}1pp7[24:5],{24}1,4,5,6,,,(250){4}8-6[8:1]*-4[8:1],8,
{16},,2,1,{8}2,{16}7,8,{4}7-5v2[4:1],7b,
{16}1b,3,1,4,1,5,1,6,1,7,1,8,{8}1,1pp6[8:3],
,1b,{4}7-1-5[4:1],,3h[16:7],
{16},,,2-6[16:5],,2,,2,,,,,{8}4,4-2[8:1]*-8[8:1],
,4,,,{2}7h[4:1]/1<8-6>5p1[16:7],
{16},,,7v2-5-8[8:5],,,,,,,,,,4-6V82q6[16:11],,,,,,,,,,,,,,,{4}Ch[8:5],
{8},,,1q6[8:5],,,,,{4}6q2[4:3],
,,2-6[8:5],
{8},,,6w2[8:3],{24},,,,,,,,,,,,,,{12}4h[3:1]/5h[3:1],
,,,,,,,{4}6h[12:5]/3h[12:5],
{12},,,,{3}2h[3:1],7b,
{12}7b,8,7-4[6:1],2,1,2,,,{3}Ch[3:8],
{24},,,,,,,,,,,,,,,{8}4>3-1-7-2-8q4[4:5],{1},{4},,{16},{48},{6}4h[12:5],
5,{12},{4}5pp7[4:1],
,6qq4[4:1],{8}6/8-5[4:1],8,{4}8,
{2}B2/B3/E3f/D3/A2/A3,E7f/B7/B6/A7/D7/A6,
{1}Chf[24:61],
,{4},,{24},A8/B3/E4/B4/E5/B5/E6/C/B6/B7/E8/E2/B1/B8/E1/E3/D1/D2/A2/D3/A3/D4/A4/D5/A5/D6/D7/A6/E7/A7/D8/A1/B2,
{4},,{96},{32}5x,
,,,4x,,,,6x,,,,3x,,,,7x,,,,2x,,,,8xh[32:29],,,,1x,
,,,7x,,,,6x,,,,5x,,,,4x,,,,3x,,,,,3x,{96},,,,,,(55){96}3h[4:1]/1bw5[64:1]b,,8bx,,7bx,,,{24}6bx,5b,
{96}4b,,,,,,,2b,{384},,,,{128}1b,Cf,
E
