&title=素颜(MyGO)
&artist=许嵩/何曼婷 v s 马小花儿
&first=-0.2
&des=
&des_5=刻于晴空玉衡星 vs 結月ゆかり
&lv_5=13+
&inote_5=(95){4},
,{8}5/4,6,7/8,1,
6,5,5h[16:1],3h[16:1],1/2,3,4/5,6,
{16}4qq8[4:1],5,4,5,{4}4,{8}7,7,6/4,5,
4,3,{16}3h[16:1],6h[16:1],{8},{4}5pp8[8:3]/4qq1[8:3],5b/4b,
,7/2,{8}1/8,{16}2,1,{8}2pp5[8:3],3/8,
2,{16}8,8,{8}7,6,4/5,{16}3,5,{8}3h[8:1],{16}6,6,
{8}4-1[8:1],{16}5-8[8:1],6,{8}4,5,2-5[8:1],{16}1,1,{8}2/7-4[8:1],{16}8,8,
{8}7/2,{16}3,3,{8}5,{16}6/4,6,{8}7/8,1/2,1/8,{16}2,2,
{8}1v4[8:1]/7v4[8:1],2,{4}1/7,{8}5/2<7-3<6[4:1],{16}3,4,{8}2,{16}6,6,
{8}8,{16}4v1[8:1]/8-5[8:1],3,{8}7,8/4,,{16}6,6,{8}4h[8:1],{16}5,5,
{8}4qq2[8:1],{16}5pp7[8:1],6,{8}4,5,,{16}8,1,{8}8<5[16:1],2>5[16:1],
8-4[16:1],2-6[16:1],8,2,7<4[16:1],1>4[16:1],7-3[8:1],1,
{2}7>4[16:3],{8}6/2,{16}5,3,{8}7-3-7[4:1],1,
7/1-5-1[4:1],2,1,8,,{16}7,8,{8}6,{16}2>5[16:3],1,
{8}3,2,8,6,5/4,{16}5,3,{8}6,5,
4,5>4s8>1[16:3]/4<5z1<8[16:3],3/6,4/5,,{16}2,4,{8}2,{16}7,5,
{8}7,7-3[8:1]/1-5[8:1],2/8,7/1,,4>2[8:1],3,4,
5<7[8:1],6,{4}5,{8}1,8-4[8:1],1-5[8:1],8,
{4}1,{8}4/8,8/4,7/3,7/3,{4}6/2,
{8}1/5,2-7[8:3]/6-3[8:3],7/3,6/2,{2},{4}4b,
{8}5<8[16:3],6,5>2[8:1],4,5,8,
{16}1>4[8:1],8,1,8,{8}1<6[8:1],8,1,3,4qq1[4:1],5,
{4}4,{8}7-5[8:1],7,7/1-3[8:1],1,1/8-6[8:1],8,
8/2-4[8:1],2,2/7-5[8:1],7,7/1-3[8:1],1,1/8w4[8:1],8,
{4}8,{8}6<8[8:1],4,6>4[8:1],2,{16}6-2[8:1],3,,1,
{4},{8}3/5,2/6,1>4[8:1],1<6[8:1],{4}1-5[8:1],
,{8}6-3[8:1]/7-2[8:1],5/8,{4}7/6,{8}3-6[8:1]/2-7[8:1],4/1,
{4}2/3,{8}4,3,2-4[8:1],8-6[8:1],2/1-5[8:1],8,
{4}1,{8}4>1[16:3],3,4<7[8:1],5,4,1,
{16}8<5[8:1],1,8,1,{8}8>3[8:1],1,8,6,5pp8[4:1],4,
{4}5,{8}1-5[8:1],7-3[8:1],1,7,1>5[8:1]*<5[8:1],2/8,
{4}1,{8}4>1[8:1],3,5<8[8:1],6,4qq4[16:3]*pp4[16:3],3,
{4}4,{8}3>1[8:1],5,3<5[8:1],7,{16}3-7[8:1],6,,8,
{4},{8}2/8,3/7,4>1[8:1],4<7[8:1],{4}4-8[8:1],
,{8}7-3[8:1]/8-4[8:1],6/1,{4}7/8,{8}2-6[8:1]/1-5[8:1],3/8,
{4}2/1,{8}4qq1[8:3],3,{4}4/8<5[8:1],8,
{8}4,5pp5[8:7]*qq5[8:7],4/6,5,{1},{2},4b,
{8}1/8,2,3/4,5,
2,1,1h[16:1],7h[16:1],5/6,7,8/1,2,
{16}8qq4[4:1],1,8,1,{4}8,{8}3,3,2/8,1,
8,7,{16}7h[16:1],2h[16:1],{8},{4}1pp4[8:3]/8qq5[8:3],1b/8b,
,6/3,{8}8/1,{16}7,8,{8}7qq4[8:3],6/1,
7,{16}1,1,{8}2,3,5/4,{16}6,4,{8}6h[8:1],{16}3,3,
{8}5<1[8:1],{16}4>8[8:1],3,{8}5,4,6-1[8:1],{16}5,5,{8}6/3-8[8:1],{16}4,4,
{8}3/6,{16}7,7,{8}2,{16}3/5,3,{8}2/1,8/7,8/1,{16}7,7,
{8}8v5[8:1]/2v5[8:1],7,{4}8/2,{8}3/6>3-7>2[4:1],{16}5,4,{8}6,{16}2,2,
{8}4,{16}4v1[8:1]/8-5[8:1],3,{8}7,8/4,,{16}3,3,{8}5h[8:1],{16}4,4,
{8}5pp7[8:1],{16}4qq2[8:1],3,{8}5,4,,{16}1,8,{8}1>4[16:1],7<4[16:1],
1-5[16:1],7-3[16:1],1,7,2>5[16:1],8<5[16:1],2-6[8:1],8,
{2}2<5[16:3],{8}3/7,{16}5,3,{8}7v4<5[4:1],1,
7/1-4-1[4:1],2,1,7,,{16}2-6-2[16:3],1,{8}3,{16}2,7,
{8}7,7-3[8:1]/1-5[8:1],2/6,7/1,,{16}4,6,{8}5,4/6,
5pp5[4:1],5qq4[8:1],{4}5,{8},{16}4,6,{8}3,7h[2:1],
1b,1b,1b,1b,,5<7[8:1],6,5,
4>2[8:1],3,{4}4,{8}8,1>4[8:1],8<5[8:1],1,
{4}8,{8}6/2,2/6,3/7,3/7,{4}4/8-4[4:3],
{8}1,7,2,6,{2},{4}4b,
{8}8<5[16:3],7,8>3[8:1],1,8,5,
{16}4>1[8:1],5,4,5,{8}4<7[8:1],5,4,2,1pp4[4:1],8,
{4}1,{8}6-8[8:1],6,6/4-2[8:1],4,4/5-7[8:1],5,
5/3-1[8:1],3,3/6-8[8:1],6,6/4-2[8:1],4,4/5w1[8:1],5,
{4}5,{8}7<5[8:1],1,7>1[8:1],3,{16}7-3[8:1],2,,4,
{4},{8}2/8,3/7,4/6,3p7[4:1],{4}3-6[8:1],
,{8}7-2[8:1]/6-3[8:1],8/5,{4}6/7,{8}2-7[8:1]/3-6[8:1],1/4,
{4}3/2,{8}1,2,3-1[8:1],5-7[8:1],3/4-8[8:1],5,
{4}4,{8}1>4[16:3],2,1<6[8:1],8,1,4,
{16}5<8[8:1],4,5,4,{8}5>2[8:1],4,5,7,8qq5[4:1],1,
{4}8,{8}1>4[8:1],2,8<5[8:1],7,4>1[8:1],3,
5<8[8:1],6,1>4[8:1],2,8,7,1>5[8:1]*<5[8:1],2/8,
{4}1,{8}2-6[8:1],8,2-4v5-7-2[8:3],5,{16}7,7,,8,
{4},{8}8-4[8:1],2-6[8:1],8,2-8v5v2[4:1],8,2,
{4}7,{8}3-7[8:1]/4-8[8:1],2/5,{4}3/4,{8}6-2[8:1]/5-1[8:1],7/4,
{4}6/5,{8}8qq5[8:3],7,{4}8/4>1[8:1],4,
{8}2<3[4:1],1,2,5,,2<7-3[2:1]/6>3-7[2:1],{4},,,{8},1>5[2:1]/5<1[2:1],
{4},,,{8},8v5[2:1]/2v5[2:1],
{4},,,{2}8<4[2:1]/4>8[2:1],
{4},{8},1,8,2,7-3[8:1]/1-5[8:1],2/8,
{4}7/1,{8}4/5,6,7/8,1,8-4[8:1],7,
{4}8,{8}4,3,5<8[8:1],6,4>1[8:1],3,
7>3v5[4:1],7,4,4,4,7/6,1/8,6/7,
5/4,2<3[8:9]/3<2[8:9],1/8,2/3,
