&title=宙天
&artist=t+pazolite vs かねこちはる
&first=0
&des=味噌汁先生 vs もとなり
&clock_count=4
&lv_6=15
&inote_6=(125)
{1},,
{12}6x/1x,7,8,8x/3x,1,2,2x/5x,3,4,4x/7x,5,6,
{2}7<8[4:8]/2,{4},{8}E5,E4,{2}E3,E8,8<1[4:8],{8},,E6,E5,{2}E4,E1,1<2[4:6],{8},,E7,E6,{4}E5,,E2,
{48},,,,,,,,1h,8h,7h,6h,
{48}1bv2-4-6b[16:10]/5bv6-8-2b[16:8],4b/8b,3b/7b,2b/6b,,,,,,,,,{4},,,
{24}2x,3,4,5,6,7,{32}8x,7,6,5,4,3,2,1,{48}8x,1,2,3,4,5,6,7,8,1,2,3,{64}4xw8b[16:1],3,2,1,8,7,6,5,{8}4,
{16}Cf,,,,2/6,,2,4,3-1[8:1],4,2,,3,,7,7,
5-1[8:1],6,,4,5-7-4-8b[4:1],,,E3/B3/B2,,B7/B6/E7,,1,1w5[16:1],,,,
{8}C,,73,{16}7,5,6-8[8:1],5,7,,6,,
2,2,4-8[8:1],3,,5,4-2[8:1],,4-7[8:1],,4-1[8:1],,4-6[8:1],,4,,4,,
{8}2bv5[8:1],13,2,{16}6,6,4-8[8:1],7,3,,4,,7,7,
1-5[8:1],8,,2,1-3-8-4b[4:1],,,B7/B6/E7,,E3/B3/B2,,5,5,,,,
{8}7bv4[8:1],86,7,{16}3,3,5-1[8:1],2,6,,5,,2,2,
8-4[8:1],1,,7,8,,,E7/E6,,E3/E4,,1,{12}1w5b[16:1],28,37,
{4}1bpp6[4:3]/Cf,,,,
{16},,,{32}E5,E4,{16}E3,,,,,,,{32}4>5-3-1[16:17],3$,{4}2$,
7h[1:1],,,,
{8},,,1,1h[8:9],,8-4[16:1],7,{64}8,Cf,,,,,,,,,,,,,,,
{8},,8h[8:3],,7h[8:3],,6,6h[4:1],5,5h[4:1],4,4h[8:1],3,3h[8:1],
{16}2,2,2,2,1,1,1,1,8,8,8,8,8x,8x,8x,8x,
{32}2x/7x,3,4,5,6,7,8,1,2x-4-8s4[8:3]`7x-5-1z5b[8:3],6,5,4,3,2,1,8,{8},,,,
{16}6b/2b,3-5[16:1],5,6b/2b,,8,8,,3b/7b,6,4,7bh[8:1]/3b,,1,8,1,
6b/2b,5-3[16:1],3,6b/2b,,1,1,,6b/2b,1,7,2bh[8:1]/6b,,1,8,7,
6b/2b,3-6[16:1],5,6b/2b,,7,7,,8b/4b,7-4[16:1],5,8b/4b,,2,{8}2,
3h[16:1]/1h[32:1],6h[32:1]/4h[16:1],{24}7,8,6,1,5,2,{48}Ch[4:1],,,,,,,,,,E7/E3,E6/E4,{4}E5,
{16}7/2-4[16:1],,1,8,2,,7,7,,5,3,,{64}6h[8:1]/4,B4,C,B8,A8,,,,,,,,,,,,
{16}2/7-5[16:1],,8,1,7,,2,2,,4,6,,{64}3h[8:1]/5,B5,C,B1,A1,,,,,,,,,,,,
{32}2/5,,3,4,3,,,,4/7,,6,5,6,,,,8/3,,2,1,2,,,,1/6,,7,8,7,,,,
3/7,,6,4,5,,2,8,1,,,,3-1q5[4:1]/7-5q1[4:1],,,,1/5,,,,,,,,,,,,,,,,
{32}3x/8x,,2,1,2,,3,,16,,7,8,7,,1,,{24}6-1[16:1]/5-2[16:1],7,4,6/5,7,4,{4}65,
{32}6x/1x,,7,8,7,,6,,83,,2,1,2,,8,,{24}3-8[16:1]/4-7[16:1],5,5,3/4,2,2,{4}34,
{16}1,2,31,4,1,2,31,4,8,7,68,5,8,7,68,5,4,3,24,1,5,6,75,8,
{32}5,6,7,8,1,2,3,4,4w8[1:1]/5w1[1:1],6,7,8,1,2,3,4,
{4}D5f,,,,
{4},,,{16},,,,
(130),,,,{2},{8},,
(135){2},{4},{16},,,,
(140),,,,{2},{8},,
(145){2},{4},7-5v4-2-4v5-7[1860:2668]b/1b-6-3-8[1:1]b,
(150){1},
(155),
(160){32}1b/Cf,2,3,4,5,6,7,8,1,2,3,4,5,6,7,8,1b/E8f,2,3,4,5,6,7,8,1,2,3,4,5,6,7,8,
(165)1b/E3f,2,3,4,5,6,7,8,1,2,3,4,5,6,7,8,1b/E6f,2,3,4,5,6,7,8,1,2,3,4,5,6,7,8,
(170)1b/E2f,2,3,4,5,6,7,8,1,2,3,4,5,6,7,8,1b/E7f,2,3,4,5,6,7,8,1,2,3,4,5,6,7,8,
(175)1b/E5f,2,3,4,5,6,7,8,1,2,3,4,5,6,7,8,1b/E1f,2,3,4,5,6,7,8,{4}1b,
(180){32}2b/6b,3,4,5,6,7,8,1,2,3,4,5,1b/6b,2,3,4,5,6,7,8,1,2,3,4,8b/5b,1,2,3,4,5,6,7,
(185)8,1,2,3,7b/4b,8,1,2,3,4,5,6,7,8,1,2,1b/3b,2,3,4,5,6,7,8,1,2,3,4,1b/5b,,,,
(190){16}4,8,3,7,2,6,1,5,{32}26,37,48,51,6,7,8,1,26,37,48,51,6,7,8,1,{8}2bz6[8:1]/6b,,2xb/8-4[8:1],,8xb/4hxb[4:1],,,,
(95)
{8}B2h[4:1]/B3h[4:1]/B6h[8:1]/B7h[8:1]/Cf/E3h[4:1]/E7h[8:1],,,
{48}1,2,1,2,1,2,1,,3,4,,3,4,,5,6,,5,{24}6p2b[16:1],,4h[48:1],B8/B7,5,E8h[48:1],
6q2-8-6[4:1],,8h[48:1],B4/B5,7,E5h[48:1],{16}6,,Chf[8:1],,,,7,8,16,,7/3h[16:1],,
{64}E1,E8,E7,E6,E5,E4,E3,E2,D1,D8,D7,D6,D5,D4,D3,D2,{8}D1/E1f,
{48}7,6,7,6,7,6,7,,5,4,,5,4-8b[16:1],,3,2,,3,{8}2h[4:1],,
{48}1x,,,B7,E7,,3x,E3,B2,,E1,,5x,,E5,B4,B3,E3,7x,,B6,,E5,,{4}B8/B1/E1/D1/Cf,,
{8}7h[32:3]/B3h[32:3],2h[32:3]/B6h[32:3],8h[8:1]/C,
{48}1,8,1,8,1,8,1,,1,8,,8,1,,1,8,,8,{24}1-7-5b[16:1],,7h[48:1],B2/B3,8,E3h[48:1],
1-3-5p1[4:1],,3h[48:1],B8/B7,2,E8h[48:1],{16}1,,Chf[8:1],,,,3,4,25,,3/7h[16:1],,
{48}4x,3,2,5x,4,3,6x,5,4,7x,6,5,8x,7,6,1x,8,7,2x,1,8,3x,2,1,4x,3,2,1,8,7,63,2,1,8,7,6,5-1[8.2##0.2]/4,3,2,1,8,7,63,2,1,8,7,6,
{4}51,C,,,,,,,
{4}B1h[2:1],,,{8}4/6pp3[4:1]b,37,
5b,,{24}1b,,,2,2,2,7,7,7,{48}1,8,1,8,1,8,{4}2hb[8:1]/7hb[8:1],
{32}7x-1-6[8:1]b,8,1,2,6x-4v7[8:1],5,4,3,{4},
{32}1x-6-8[8:1],2,3,4,8xv5[16:1]b,7,6,5,,,,,,,,,
6h[16:1],,4,3,8,7,6,5,1-6[16:1],2,3,4,{32}1-3[16:1]*-4[16:1],8,7,6,
{8}1b<1<1[4:1]b,1b,{64}A1/D1,A8/D8,A7/D7,A6/D6,A5/D5,A4/D4,A3/D3,A2/D2,{128}A1,D1,A8,D8,A7,D7,A6,D6,A5,D5,A4,D4,A3,D3,A2,D2,
{8}A1f,26,{16}1b-5[32:1],8-6[32:1],1,8q4[32:1]b,1>3[32:1]b,8,1,8,{8}1b,B7h[16:1]/B6h[16:1]/E7h[16:1]/D7h[16:1],
{8}15,37,{16}4b-2[32:1],5-1[32:1],4,5<7[32:1]b,4q8[32:1]b,5,4,5,{8}4b,B2/B6/A2/A6/C,
{32}1,2,3,4,2,3,4,5,3,4,5,6,4,5,6,7,{24}58,6,7,86,7,8,17,8,1,28,{48},{32},,
1,1,2-4[127#16:1],1,1,8-6[148#28:1],1,1-5[153#12:1],
{16}2,8,1,,
{64}8w4[64:1],8,8,8,8w4[128#48:1]*w4[128#48:1],8,8,8,
{8}8w4[190#32:1]b,8b,{16},,
{48}1b/5bh[8:1],2,3,4,,6,7,8,1,2,3,4,5b/1bh[8:1],6,7,8,,2,3,4,5,6,7,8,
{64}1xb/5xb,2,3,4,5,6,7,8,1xb/5xb,2,3,4,5,6,7,8,1w5[4:3]b/5xb,2,3,4,5,6,7,8,
{8}1xb/5xb,
{1}1b/Cf,
{32}2b,2,4,4,5,5,7,7,3b,3,1,1,8,8,6,6,{64}2b,3,4,5,6,7,8,1,2b/6b,5,4,3,2,1,8,7,6b/1b,2,3,4,5,6,7,8,17,,,,,,,,
{48}8b,7,8,7,8,7,1b,6,1,6,1,6,2b,5,2,5,2,5,3b,4,3,4,3,4,
{64}2b,5,3,4,1b,6,8,7,2b,1,3,8,
{96}2,3,4,5,6,7,8,1,2b,3,4,5,6,7,8,2b/5b,4,3,2,1,8,7,6,5b,4,3,2,1,8,7,6,
{5}5b-1[8:9],
{24}5,4,3,4,3,2,3,2,1,2,1,8,1,8,7,8,7,6,7,{12}6,5bw1[120#64:1],5b,5b,,,,,,,,,E,
