&title=L.U.V
&artist=歌:姫崎莉波 (CV. 薄井友里) 作曲・作詞:諭吉佳作/men 編曲:倉内達矢 「学園アイドルマスター」
&first=0.09
&des=Aza
&lv_5=13
&inote_5=(230)
{1},
{2}5,5,{4}5,{12}5,,4,{12}5,,4,{4}5,{8}3h[4:1],,5,4h[4:1],,6,5<3[2:1],,{1},{8}6h[4:1],,4,5h[4:1],,3,4pp7[2:1],,{4},2,2,2,3<6[8:1],,,1/8,
{2}2b/7b,{12},,,,,4,5,,5,3,,3,4,,4,2,,2,1,,1,3,,3,4,,4,5,,5,6,,6,5,,5,7,,7,8,,8,5,,5,4,,4,3,,3,2,,2,1,,1,{1}3>4[2:1],{4}2/5,4/7,5/6,{8}3/4,2x,2x,{4}5x,1,{8}8<1[2:1],,,,,,,{12},,5,4,,4,6,,6,5,,5,7,,7,8,,8,6,,6,5,,5,4,,4,3,,3,4,,4,2>5[8:1]*<7[8:1],,,,,,6,,6,5,,5,4,,4,3,,3,7,,7,8,,8,1,,1,2,,2,4,,4,5,,5,7,,7,{4}1hx[4:3],,5,6h[4:3],,4x,3x,{24}2,D6,A5,D5,A4,D4,{12}A3,,1,
{12}8b,,8,2,,2,1,,1,3,,3,4,,4,2,,2,5,,5,4,,4,7,,7,8,,8,6,,6,1,,1,5,,5,4,,4,6,,6,3,,3,4,,4,{4}2qq7[2:1],,,{8},6x,6x,5xqq2[2:1],,,,,,1x,8x,{4}7x,1>7[2:1]/7,1/7,,,{8},{12},,2,1,,1,3,,3,4,,4,2h[4:1],,,4,,7,8,,8,6,,6,5,,5,7,,7,4,,4,{4}5h[4:1],3h[1:1],4,8,4,8,1/7,2/6,3/5,4/6,{12}5/7,,6,4,,4,5,,5,3,,3,{4}4-8[8:1],2-5[8:1],7-3[8:1],2,1-5[8:1],7-4[8:1],2-6[8:1],8w4[8:1],
{1}8b,{2}2>5[2:1],7h[2:1],6pp3[1:1],,1,1,2qq5[1:1],,{4}6,6,7,8,4h[2:1],,5,{12}5,,4,5,,4,{8}5,3<6[8:1]/6,{2},
{4}7/8-4[8:1],7-5[8:1],{8}8,{4}1x-3[8:1],4-6[8:1],1-3[8:1],4v6[8:1],2h[8:3],{8},{4}8b,2-4[8:1],{8}1,{4}8-6[8:1],5-3[8:1],8-6[8:1],5v3[8:1],{8}7h[8:3],,,{12}1b,,1,2,,2,3,,3,4,,4,5,,5,6,,6,7,,7,8,,8,{4}1q6[8:1],D7/E7,8p3[8:1],D3/E3,1q6[8:1],D7/E7,8p3[8:1],D3/E3,
{12}1,,1,{8}7v8[8:1],,3,3h[4:1],{12},,8,{8}2v1[8:1],,6,6,,,4/7,,{12}2/5,,2,{8}4,,3/5,3h[4:1]/5,{12},,7,{8}5,,4/6,4/6-3b[8:1],2,,,,{4}1-3[8:1]/8,1/8-4[8:1],1-5[8:1]/8,1/8-6[8:1],1-3[8:1]/8,1/8-4[8:1],1-5[8:1]/8,1/8,{12}8b,,8,7,,7,6,,6,5,,5,4,,4,3,,3,2,,2,1,,1,{4}8w4[8:1],8b,{8}2/6,{4}2/6-3[8:1],1-5[8:1],6-3[8:1],1-5[8:1],6-3[8:1],2h[8:3],{8},1b,,3/8,{4}3/8-4[8:1],3-6[8:1],8-4[8:1],3-6[8:1],7h[8:3],{8},{12}2b,,2,1,,1,4,,4,5,,5,8,,8,7,,7,4,,4,5,,5,{4}1v4[8:1],D7/E7,8<5[8:1],D3/E3,1>4[8:1],D7/E7,8v5[8:1],D3/E3,6pp6[4:1]*qq6b[4:1],,,3qq3[4:1]*pp3b[4:1],,,{8}6x,7x,8x,1x,2hx[4:1],,5,4h[4:1],,7,6h[4:1],,1,8h[4:1],,2,{4}3b-8[8:1],7-4[8:1],2-5[8:1],6-1[8:1],3-8[8:1],7-4[8:1],2-5[8:1],6-1[8:1],{2}3h[2:1],4bpp6[4:1],5qq3[4:1],4p7[4:1],5q2[4:1],
{4}4<2[2:1],3hx[8:1],3,,4<2[2:1],3hx[8:1],3,,4<2[2:1],3hx[8:1],3,,4<2[2:1],3hx[8:1],3,,{16}A3,E4,E5,A5,{4},,,,,{12}1x,8x,1x,8x,1x,8x,1x,8x,1x,8x,1x,8x,{6}1b,2b,3b,4b/8b,7b,6b,1b/5b,2b,3b,4b/8b,,{12},1,{4}7>2p6[1:1],,3,4,5,4,3h[4:1],{12},,8,{4}2<7q3[1:1],,6,5,4,5,6h[8:1],6h[8:1],5h[8:1]/7h[8:1],4h[8:1]/6h[8:1],5h[8:1]/3h[8:1],2h[8:1]/4h[8:1],1h[8:1]/8h[8:1],C/B2/B3/B4/B5/B6/B7/E3/E5/E7,,{12}2b/7b,,,,,3,{4}6>3[8:1],C,,,,
{2}E3h[2:10],B2h[2:9],B3h[2:8],B4h[2:7],Ch[2:6],E5h[2:5],B5h[2:4],B6h[2:3],B7h[2:2],E7h[2:1],{1},
{4}2hbx[4:1],4h[4:1],3hbx[4:1],8h[4:1],5hbx[4:1],7h[4:1],1hbx[4:1],6h[4:1],{8}2>5[8:1],,8,8,,,7<4[8:1],,1,1,,,{4}8,1,{8}2h[4:1]/7h[8:1],,,6h[4:1]/5h[8:1],,,3h[4:1]/4h[8:1],,,5h[4:1],4h[8:1],,{4}2/7,1>5[4:1]/8,5<1[4:1],1>5[4:1],5<1[4:1],1>5[4:1],5<1[4:1],1>5[4:1],5<1[4:1],1^2^3<1[2:1],Cf,1^2^3^4^5<1[2:1],Cf,1^2^3^4^5^6^7>1[2:1],Cf,1^2^3^4^5^6^7^8^1[2:1],Cf,1,
{4}C,1b/8b,{8}3/7,{4}4/6-1[8:1],2-5[8:1],6-1[8:1],2-5[8:1],6,{24}6,7x,8x,{4}1x-5[8:1],1b,{8}6/2,{4}5/3-8[8:1],7-4[8:1],3-8[8:1],7-4[8:1],{8}3h[8:3],,,{12}1b,,1,2,,2,8,,8,3,,3,7,,7,4,,4,6,,6,3,,3,{4}5<8[8:1],E3/B2/C,4>1[8:1],E7/B7/C,5<8[8:1],E3/B2/C,4>1[8:1],E7/B7/C,
{12}8,,8,{8}3v2[8:1],,5,5h[4:1],{12},,1,{8}6v7[8:1],,4,4,,,1/2,,{8}3h[4:1]/8,,6,5h[4:1],,8,7h[4:1],,2,1h[4:1],,4,{4}3-8[8:1],3x/7-4[8:1],7x/2-5[8:1],2x/6-1[8:1],6x/3-8[8:1],3x/7-4[8:1],7x/2-5[8:1],2x/6-1[8:1],6x/3-8[8:1],3x/7,{12}6b,,6,5,,5,4,,4,3,,3,2,,2,1,,1,8,,8,7,,7,{4}6v3q7[2:1],8,1,2,3v8q4[2:1],5,6,7,8bp4v7[2:1],1,2,3,4bp8v3[2:1],5,6,7,{8}3x/8x,,,2x/7x,,,1x/6hx[1:5],,,,{12}E6,E5,E4,{1}E3,,,,
