&title=Andragoon
&artist=Se-U-Ra
&first=0.07999999
&lv_5=13+
&des_5=Voranger
&inote_5=
(210){4},{8},,,,,,5h[8:1],
4,{4}6,{8}3,4,{4}3,
{8}5h[8:1],4,{4}6,{8}4h[8:1],5,{4}3,
{8}6h[8:1],5,{4}7,{8}3,4,2,{16}5,4,
{4}6x,5,4x,3,
{8}7-3[8:1],5,7,2-4[8:1],1-5[8:1],2,{4}1,
{8}2-4[8:1],7,2,6-8[8:1],5-1[8:1],6,{4}5,
{8}2-4[8:1],8,{4}2,{8}5,6,4,3,
6,4,{16}6h[2:1],,,B3,{4}B2,1,
{1}1s5[4:3],
{2}8h[2:1],{8}3,3,{4}6/1-5[8:1],
{8}Cf/7b-3[16:3],,,Cf/4b-8[16:3],,,{4}6b/Cf,
{2}5h[4:1]/1h[4:1],{8}7bx/3bx,7bx/3bx,{4}3bx/7bx-3[8:1],
{8}Cf/1b-5[16:3],,,Cf/8b-4[16:3],,,{4}3b/Cf,
1/6,2,{8}3/8,{16},,,,7,6,
{1}5/3h[1:1],
{4}E7,C,E3,E5/E1,
,,,,6h[4:1],
{8}4,4<7[8:1],,3,{4}3,
8/2-5[4:1],5<8[4:1],{2}8-3[4:1],
{4}7h[4:1],{8}1,1<6[8:1],,2,{4}2,
3/5,B2f/B3f/B5f/B6f/Ch[2:1],,,7h[4:1],
{8}6,6pp8[4:1],,5,{4}5,
3q1[4:1],1>4[4:1],{2}4p8[4:1]*-6[8:1],
{4}7h[4:1],{8}5,5,,8,{4}8,
{8}E5/E3/E4f,,,E1f/E8/E2,,,{4}E6f/E7/E5,
{8}2x-4[8:1],4-8[8:1],{4}5,{8}7-1[8:1],1-5[8:1],{4}2,
{8}3>8[4:1],3,8>6[8:3],8,{4}E7,C,
{8}7h[4:1],5,{4}5,{8}3h[4:1],4,{4}4,
{8}3,6,2-5[8:1],5V31b[4:1],{2}6-8b[8:1],
{8}7x-5[8:1],5-1[8:1],{4}4,{8}2-8[8:1],8-4[8:1],{4}7,
{8}6>3[4:1],6,3<6[4:1],3,{4}C,E2,
{8}3x/7x,3,3,3,5x/1x,5,{4}1/7xh[4:1],
{16}1x,8x,2x,7x,3x,6x,4x,5x,3x,6x,2x,7x,{32}1x-5[8:1],2x,3x,4x,5x,6x,7x-3[4:1],8x,
{8}1bx/Cf,,,Cf/2b-6[16:3],,,{4}7b/Cf,
{2}8h[4:1]/4h[4:1],{8}2bx/6bx,2bx/6bx,{4}6bx/2bx-6[8:1],
{8}Cf/8b-4[16:3],,,Cf/1b-5[16:3],,,{4}6b/Cf,
8/2,4,6/1,7-3b[8:1],
{8}Cf/1b-5b[16:3],2,,Cf/6b-2b[16:3],{4}7,{8}3b/Cf,4,
1,8,{4}7,{8}1bx/6bx,1bx/6bx,{4}6bx/1bx-5b[8:1],
{8}Cf/Cf/8b-4b[16:3],7,,Cf/3b-7b[16:3],{4}2,{8}6b/Cf,5,
{16}8x/4x,,,5x/1x,,,{8}6x/2x,{16},8x/4x,,,7x/3x,,,6x/2x,
{1}5x>6[2:7],
B8,
B6,
{4}B4,{8}D4,A3,{2}D3,
{8}5h[2:1],4,{4}3,{8}2,4,{4}2,
{8}3h[2:1],4,{4}5,{8}7h[2:1],5,{4}4,
{8}2h[2:1],5,{4}6,{8}7,5,7,{16}4,3,
{4}2h[4:1],3h[4:1],4h[4:1],5h[4:1],
{8}2-6[8:1],4,2,7-5[8:1],8-4[8:1],7,{4}8,
{8}7-5[8:1],2,7,3-1[8:1],4-8[8:1],3,{4}4,
{8}7-5[8:1],1,{4}7,{8}4,3,5,6,
3,4,{16}2h[2:1],,,B5,{4}B6,7,
{8}2,4,3,5,4,6,{4}5h[4:1],
{8}7,5,6,4,5,3,{4}4h[4:1],
{8}2,4,3,5,4,6,{4}5h[4:1],
{1}8b,
{8}2h[8:1],4h[8:1],3h[8:1],5h[8:1],4h[8:1],6h[8:1],{4}5,
{8}7h[8:1],5h[8:1],6h[8:1],4h[8:1],5h[8:1],3h[8:1],{4}4,
1bh[8:1],7bh[8:1],5bh[8:1],3bh[8:1],
{2}2xh[4:1]/8xh[4:1],{16}4bx/7bx,,,5bx/2bx,,,{8}3bx/6bx,
4-6[8:1],6-2[8:1],8>6[8:3],8,,,,1h[4:1],
,,{4}7V51[4:1],{8}3,3,,2/8,
,5/3,{4}5/3,{16}6,5,4,3,2,1,8,7,
6/3,4,5,6,7,8,1,2,{8}3x/7x,3x/7x,6x/2x,6x/2x,
5-1[8:1],1-7[8:1],2-4[8:1],2,,6>7[8:3],1,6,
,,{4}4-1[8:1]*-2[8:1],4bx-6[8:1]*-7[8:1],4bx,
{16}E1,B1,B2,E3,E7,B6,B5,E5,E2,B2,B3,E4,E8,B7,B6,E6,
E3,B3,B4,E5,E1,B8,B7,E7,E3,E4,E5,E6,E7,E8,E1,E2,
{8}6x-4[8:1],4x-8[8:1],2<4[8:3],2,,,,8h[4:1],
,,{4}2V48[4:1],{8}6,6,,7/1,
,4/6,{4}4/6,{16}3,4,5,6,7,8,1,2,
3/6,5,4,3,2,1,8,7,{8}6x/2x,6x/2x,3x/7x,3x/7x,
4-8[8:1],8-2[8:1],7-5[8:1],7,,3<2[8:3],8,3,
,,{4}5-8[8:1]*-7[8:1],5bx-3[8:1]*-2[8:1],5bx,
{16}E1,B8,B7,E7,E3,B3,B4,E5,E8,B7,B6,E6,E2,B2,B3,E4,
E7,B6,B5,E5,E1,B1,B2,E3,E7,E6,E5,E4,E3,E2,E1,E8,
{4}2b/E7,{8}7-4[8:1],4-7[8:1],7-2[8:1],2<4[4:1],3,3-5b[8:1],
,3bx,1-5b[8:1],2,{4}1bx<4b[4:1],1bx,
8V24[4:1],4V68[4:1],8>4[4:1],4<6[8:1],
1xh[4:1],{16}E7,B6,{8}B5,{16}B1,B2,{8}E3,{4}4/8,
7b/3b,{8}2-5[8:1],5-2[8:1],2-7[8:1],7>5[4:1],6,6-4b[8:1],
,6bx,8-4b[8:1],7,{4}8bx>5b[4:1],8bx,
1xh[4:1],{16}8V24[4:1],7,6,5,{2}4V28[4:1],
{1}Cfh[2:1],
7p6[1:1]/2q3[1:1],
{8},,,,8/4,4/8,,5/2-6[8:1],
,7,{4}7,{16}8xh[16:5],4xh[16:5],,,,,,,8b/4b,
,,7b/3b,,,{8}6b/2b,{16}1b/5b,,,2b/6b,,,{8}3b/7b,
8-4[8:1],8,7-3[8:1],7,6-2[8:1],6,5>6[4:1],5,
{32}8xh[4:1]/E5,E4,E3,E2,E1,E8,E7,E6,,,,,,,,,{16}7b/5b,,,4b/2b,,,{8}6b/3b,
{12}5h[2:3]/B4,B3,B2,B8,B7,B6,E5,E4,E3,E1,E8,E7,
D5,D4,D3,D2,D1,D8,D7,D6,D5,8b/D4f,{24},,,,{8}4x,
6,{4}2,{8}5,4,{4}6,
{8}3,5,{4}2,{8}6,5,{4}7,
{8}3,4,{4}1,{8}6,5,7,{16}1,2,
{4}3x,4x,5b,6b,
{8}7h[4:1],5,{4}5,{8}3,4,{4}3,
{8}2h[4:1],4,{4}4,{8}7h[4:1],5,{4}5,
{8}3b/5,5,5,5,6b/4,4,4,4,
7b/3b,6b/2b,{4}5b/1b-5b[8:1],1b/7b-3b[8:1],7b/4b,
{1}2b<6b[2:3]/6b>6[4:15],
{4},,,,E6,
E5,E4,E3,
E2,E1,E8,E7,
E
&lv_6=14+
&des_6=Avr_wind
&inote_6=
(210){4},,,,{2}6/4h[32:1],
5,
3/5h[32:1],6/4h[32:1],
1/8h[32:1],{8}3,{16},,,,5,4,
{4}6h[4:1],B7,5h[32:1]/3h[4:1],B2,
{8}1,8,7/5,{16}6,4,5,4,{8}6h[8:1],{4}8,
7h[4:1],1h[32:1],6h[4:1],3h[32:1],
4/5h[4:1],4,{8}6,3,7,2,
E1,B8/B1,{4}Cfh[4:3],{32}E6,E7,,,,,,,{4}B8,
{1}7>3s7-2[2:3],
4<6-3b[2:1],
{32}1/4bx,5,{16}6,,,{8}7,{32}6/8bx,1,{16}2,,,{8}4,{32}3bx/5bx,2,1,8,,,,,{8}6,
4,{4}8-6-2-4[4:1],{2}1xh[4:1],
{32}1/5bx,6,{16}7,,,{8}2,{32}3/1bx,8,{16}7,,,{8}5,{32}6bx/4bx,3,2,1,,,,,{4}7h[2:1],
1h[4:1],{16},,,,,,7/1,6/2,
{1}5-2p6[2:3]/3-6<2[2:3],
,C,
{4}4/5h[8:1],4/5h[8:1],{8}6h[8:1],4,6h[8:1],4,
{4}3/7h[8:1],3/7h[8:1],{2}8-4[8:1],
{8}3h[8:1],5,3h[8:1],5,{4}6/2h[8:1],7/2h[8:1],
8-2[8:1],8/3,4w8[8:1],4,
{8}2/6,3,4/7,8,5/1,4,3/1-4[8:1],8,
{4}7/1,{8}6,7,2-5[8:1],8-4[8:1],2,8,
3,3,2,2,8,8,7,7,
{4}6b-2[8:1],{8}6,4bz8[8:1],,4,{4}6b,
{8}1<6[8:1],2,3,4,5>2[8:1],6,7,8,
1-6[8:1],1,5-2[8:1],5,{4}5-8[8:1],5,
{8}1>4[8:1],8,7,6,5<8[8:1],4,3,2,
1,6,3-7[8:1],7-1[8:1],{2}1-5[8:1]*-6[8:1],
{8}4,3,2,1,8>3[8:1],7,6,5,
6-3[8:1],6,{4}2-5[8:1],2/8-5[8:1]*-4[8:1],8,
{8}3/6,2,1/5,6,{16}4/7,3,2,1,5,6,7,8,
{32}2,3,4,5,6,7,8,1,2,3,4,5,6,7,8,1,A2,A3,A4,A5,A6,A7,A8,A1,E2,E3,E4,E5,E6,E7,E8,E1,
{8}Cf/E2,{32},,,,,,,,6b/4b,3x,2x,1x,,,,,,,,,2b/5b>6[32:9],6x,7x,8x,{4},,{16},,{8}B3/E4,
E6/B5,{4}B8/B1/Cfh[4:1],
{32}6b,5x,{16}4x,{32},,,,,,,,4b/2b,5x,6x,7x,,,,,,,,,3b/7b,2x/6x,1x/5x,8x/4xh[32:21],,,,,{4}E7,
E2,{2}Cfh[2:1],
{8}7b,6-3[8:1],,6b/1b,{4}2-7[8:1],2/6b-1[8:1],
6/1-5<1[8:3],2,{8}E5,E4,{4}E3,
{32}3/4b,5,{16}6,{8}1,{32},,,,6b/1,5,{16}4,{4}3,{32}3/4b,5,{16}6,{8}1,
{16}8h[8:1]/6h[8:1],,,3h[8:1]/1h[8:1],,,{8}7h[8:1]/5h[8:1],{16},4h[8:1]/2h[8:1],,,{8}8b/1b,8b/1b,
{1}2b/7b-1-5-3-7[1:3],
Ch[4:1],
Ch[4:1],
Ch[4:1],
{2}3h[8:1]/5h[4:1],{8}3,5,{4}4,
{2}6h[8:1]/4h[4:1],5h[8:1]/3h[4:1],
4h[4:1]/6h[8:1],{8}5,4,6,{16}3,4,
{2}5h[4:1]/7h[4:1],2h[4:1]/4h[4:1],
{8}8,1,2/4,{16}3,5,4,5,{8}3h[8:1],{4}1,
{8}2h[4:1],8h[8:1],,,3h[4:1],6h[8:1],,,4h[4:1],
5h[8:1],,,3,6,2,7,
8/1,8/1,7/2,{16}5h[8:1],4h[16:1],,,,,{4}8b<1[4:7],
{2}4h[4:1],4h[4:1],
6h[4:1],6h[4:1],
7h[4:1]/1-5[2:1],7h[4:1],
{1}4h[4:3]/6h[2:1],
{8}4/6h[8:1],4,4/7h[8:1],4,4/8,8/4,{4}4/8,
{8}5/3h[8:1],5,5/2h[8:1],5,5/1,1/5,{4}5/1,
{32}2/7,3,4,5,,,,,6/1,5,4,3,,,,,3/7,4,5,6,,,,,7/1-5[16:1],6,5,4,,,,,{2}1,
{16}7/5,,,3/1,,,{8}6/2,
3/7,{16}5,4,6,4,{24}5,3,2,{8}1-5-3[4:1],6,7,7h[4:1],
{16},,2,1,{4}8-4-6[4:1],{8}8b,2-7[8:1]*v5[8:1],,2b,
,6/4,{4}6h[4:1]/4h[8:1],{16}4,3,2,1,4,3,2,1,
8/4,7/3,6/2,5/1,4,3,2,1,4,8,3,7,2,6,1,5,
{8}8b,{16}6,5,{8}7,{24}2,3,4,{8}5-2[8:1],6<2[8:1],5,6b,
{16},,3,4,{4}5-3[16:1]*-2[16:1],5-8[16:1]*-7[16:1],5,
{16}2,1,2,1,3,8,3,8,2,3,4,5,1,8,7,6,
3,4,2,5,1,6,8,7,2,1,3,8,2-6[16:1],1,4,7,
{8}2/Cf,{16}7,8,{8}1,{16}5,4,{8}3-7-5[4:1],1,3,1h[4:1],
{24},,,,4,3,{4}2-7-1[8:1],{8}2b,5-2[8:1]*v8[8:1],,5b,
,1/7,{4}1h[4:1]/7h[8:1],{16}6,5,4,3,2,1,8,7,
6/3,4,5,6,7,8,1,2,5,3,7,1,5-8[16:1],4,7,2,
{8}5/E6f,{16}4,3,1,8,3,2,{8}8>3[8:1],3<6[8:1],{4}6<1[8:1],
{16},,3,4,{4}5h[32:19],{32}1b,2,3,4,,,,,1b,8,7,6,,,,,{16}4,
5,4,5,4,5,4,5,3,6,3,6,3,6,3,6,
2,3,4,5,8,7,6,5,1,2,3,4,1-5-1[4:1],8,7,6,
{2}5/Cf/1V73[4:1],{8}4-1[8:1],5,6-2-6[4:1],7,
8-4-8[4:1],A2f,{4}8-6-3[4:1],A6f/2-7[8:1],E2f/2<4[4:3],
,E6,E7,E8,
8<4[8:1],{24}4<8b[6:1],3,{6}2,{24}8V64[8:1],1,{12}2,{24},,4-8-6-2[2:1],3,{6}2,
{2}Cf,{8}4,4,5-1-5[4:1],6,
7-3-7[4:1],A1f,{4}7-5-8[4:1],A7f/1-4[8:1],E2f/1<3[4:3],
,E5,E6,E7,
{2}6h[2:1]/2h[4:1],{16}E4/E5/A4,,,E8/E1/A8,,,{8}Cfh[8:1],
,,,,,,,,,,,,8/4,
2b-5[8:1]/6bv1[8:1],,6b/2b,
,4b/8b,{4}3bh[4:1]/7bv4b[8:1],{8}7b,{24}2,1,8,7,3,2,1,8,7,
{16}6bx-2b[16:1],,,1bx-5b[16:1],,,{8}7b,{16}3bx-7b[16:1],,,8bx-4b[16:1],,,{8}2b,
1,1,2/5,5,6/2,2,6/3,6,
{16}6b,2,4,2,6b,2,8,2,{8}7b/3bx,{16}2,5b/1bx,,7,{8}4b/8bx,
{4}6b/2b,{12}5bh[24:1],4,6h[24:1],3b,5h[24:1],4,7bh[24:1],2,5h[24:1],
2b,8h[24:1],4,2bh[24:1],6b,8bh[24:1],4b-8[16:1],6bh[24:1],2b,4bh[24:1],{24},,,,{8}2/E6,
2,{4}2/E1,{8}7/E4,7,{4}7/E1,
{8}3/E8,3,{4}3/E5,{8}6/E2,6,{4}6/E5,
{8}4/E7,4,{4}4/E2,{8}8/E6,8,8/E3,{16}E4,C,
{4}E8,6-8[8:1],5-1[8:1],4-2[8:1],
{8}4,5,{4}6,{8}5,4,{4}3,
{8}1,8,{4}7,{8}8,1,{4}2,
{8}6/4,6,6,6,2/4,2,2,2,
8,{32}8,7/1,6/2,5/3,{16}4,,,2h[16:1],{4}6,{32}1,7,,,,,,,{1}8-4[4.4286##0.1429],
{8},,,,,,,,E3,
E4,E5,E6,E3,E4,E5,E6,
E2,E3,E6,E7,E2,E3,E6,8b/E7,
E
