&title=55555猴子歌
&artist=Unknown
&first=0.3399999
&des=Swear01
&des_5=Swear01
&lv_5=14.2
&inote_5=(130){32}8/1,7,{16}6,{8},8,{48}8,1,{12},{8}8,8,8,8,
{32}8/1,7,{16}6,{8},8,{48}8,1,{12},{8}8,8,8,8,
{32}8/1,7,{16}6,{8},8,{48}8,1,{12},{8}8,8,8,8,
{32}8/1,7,6,5,4,3,{16},{8}8,{48}8,1,{12},{8}8,8,8,8,
{32}8/1,7,{16}6,{8},8,{48}8,1,{12},{8}8,8,8,8,
{32}8/1,7,6,5,4,3,{16},{8}8,{48}8,1,{12},{8}8,8,8,8,
{16}8,1,{8}8,{16}8,1,{8}8,8,8,8,8,
{48}8,1,{16},,{48},{16}1,8,1,{8}8,8,8,8,8,
{48}8,1,{16},,{48},{16}1,8,1,{8}8,8,8,8,8,
{48}8,1,{16},,{48},{16}1,8,1,{8}8,8,8,8,8,
{32}2,1,6,7,2,3,6,5,2,1,6,7,2,3,6,5,2,1,6,7,2,3,6,5,{4},{32}2,
1,6,7,2,3,6,5,2,1,6,7,2,3,6,5,2,1,6,7,2,3,6,5,{4},{32}6,
5,2,3,6,5,2,3,6,5,2,3,6,5,2,3,6,5,2,3,6,5,2,3,{4},{32}6,
5,2,3,6,5,2,3,6,5,2,3,6,5,2,3,6,5,2,3,6,5,2,3,{4},7-5[16:3],
7-4[16:3],4-1[16:3],1-3[16:3],
7<7[16:7],7-5[16:3],7-3[16:3],1-3[16:3],
8-5[16:3]/1v4[16:3],1/8,6x-2[4:1],2<6[4:1],
6>3[16:3],2,7v4[16:3]/1v4[16:3],{32}7/1,B1/B7/B8,C,B4,{8},{16}1,
{8},{16}1,2-5[16:3],3h[16:1],{8},{4}1>4[16:3],1,
{16}8,{8},{16}8,7-4[16:3],6h[16:1],{8},{4}8<5[16:3],8,
{16}3,{8},{16}2,3<6[16:3],4h[16:1],{8},{4}1>3[16:3],8/1,
{16}6,{8},{16}7,6>3[16:3],5h[16:1],{8},{4}8<6[16:3],1/8,
{32}8b,1,2,3,4,5,6,7,8,1,2,3,4/8b,7,6,5,4,3,2,1,8,7,6,5,{4}4/3,
{32}8b,1,2,3,4,5,6,7,8,1,2,3,4/8b,7,6,5,4,3,2,1,8,7,6,5,{4}4/3,
{32}8b,7,6,5,4,3,2,1,8,7,6,5,4/8b,1,2,3,4,5,6,7,8,1,2,3,{4}4/5,
{32}8b,7,6,5,4,3,2,1,8,7,6,5,4/8b,1,2,3,4,5,6,7,8,1,2,3,{4}4/5,
{8}6/7,5,4/3,2,1/8,7,6/5,4,
{16}2/3h[2:1],{8},{16}1,{8}1,1<5[4:1],C,6,5,4,
2/3,1,8/7,6,5/4,3,2/1,8,
{16}7/6h[2:1],{8},{16}8,{8}8,8>4[4:1],C,3,4,5,
{32}7-5[8:1],E8/B8,{16}B1/E2,{8},1,{32}E2/B2,B3/E4,{16},,,{8}8/Ch[4:1],7,6,
{32}2-4[8:1],E2/B1,{16}B8/E8,{8},8,{32}E8/B7,B6/E6,{16},,,{8}1/Ch[4:1],2,3,
{32}7-5[8:1],E8/B8,{16}B1/E2,{8},1,{32}E2/B2,B3/E4,{16},,,{8}8/Ch[4:1],7,6,
{32}2-4[8:1],E2/B1,{16}B8/E8,{8},8,{32}E8/B7,B6/E6,{4},,{16},{32}1/8-4[6:1],
7,{16},,,{32}8/1-5[16:3],2,{16}3,{8},{32}1/8-4[6:1],7,{16},,,{32}8/1-5-3[16:3],2,{16}3,{8},{32}1/8b<4[6:1],
7,{16},,,{32}8/1V35[16:3],2,{16}3,{8},{32}1/8<7-4[6:1],7,{16},,,{32}8/1>2-5[16:3],2,{16}3,{8},{32}1/8-5>4[6:1],
7,{16},,,{32}8/1q5[16:3],2,{16}3,{8},{32}1/8p4[6:1],7,{16},,,{32}8/1>2-5[16:3],2,{16}3,{8},{32}1/8b-4[6:1],
7,{16},,,{32}8/1-5[16:3],2,{16}3,{8},{32}1/8,7,{16},,,{32}1b,2/8,3/7,4/6,{8}5,
{32}1<8-5[4:1],2,{16}3,{8},{32}5>4-1[4:1],4,{16},,,{32}1<8-5[4:1],2,{16}3,{8},{32}5>4-1[4:1],4,{16},,,{32}1<8-5[4:1],
2,{16}3,{8},{32}5>4-1[4:1],4,{16},,,{32}1<7[8:1],2,{16}3,{4},{8},{32}8,
7,6,2,3,4,7,6,5,1,2,3,8,7,6,2,3,4,7,6,5,1,2,3,8,7,6,2,3,4,7,6,
5,1,2,3,8,7,6,2,3,4,7,6,5,1,2,3,8,7,6,2,3,4,7,6,{4}5/1b,
{8}2V48[4:1],{24}8,,7,6,5,{6},{8}7V51[4:1],{24}1,,2,3,4,{6},{8}2V48[4:1],
{24}8,,7,6,5,{6},{8}7,{24}1,,2,3,4,{6},{32}8,
7,6,5,8/4,1,2,3,4/8,7,6,5,8/4,1,2,3,4/8,7,6,5,8/4,1,2,3,4/8,7,6,5,8/4,1,2,3,
4/8,7,6,5,8/4,1,2,3,4/8,7,6,5,8/4,1,2,3,4/8,7,6,5,8/4,1,2,3,{4}8bp4[8:1]/4p8[8:1],
8>3[8:1]/4<7[8:1],8p4[8:1]/4p8[8:1],8>3[8:1]/4<7[8:1],8p4[8:1]/4p8[8:1],
8>3[8:1]/4<7[8:1],8p4[8:1]/4p8[8:1],8>3[8:1]/4<7[8:1],4-8[8:1]/8-4[8:1],
8<5[8:1]/4>1[8:1],8q4[8:1]/4q8[8:1],8<5[8:1]/4>1[8:1],8q4[8:1]/4q8[8:1],
8<5[8:1]/4>1[8:1],8q4[8:1]/4q8[8:1],8/4,{32}8b/4b,7/3,6/2,1/5,{8},{4}6/1,
{8}6/1,2,6,1,6/2,1,
{4}6/2,{8}6/1,2,6,1,{32}1/6,2,3,4,{8},{4}6/1,
{8}6/1,2,6,1,6/2,1,
{32}1/6,2,3,4,{8}5,6/1,2,6,1,{16}6/2,{8},{16}6,
8h,4,2h,8,4h,6,8h,4,2h,8,4h,6,8h,4,2h,8,
4h,6,2h,8,4h,6,8h,4,2h,6,8h,4,2h,8,4h,6,
2h,8,4h,6,8h,4,2h,8,4h,6,8h,4,2h,6,4h,8,
2h,4,8h,6,{8}4bh,6bh,8bh,Ch[8:1],{4},{48}8,
1,{16},,{48},{16}1,{8}8,{48}8,1,{16},,,{48},8,1,{12},{32}8-4[16:1],1b,8b,1b,8b,1b,8b,1b,
{48}8b,1b,{16},,{48},{16}1,{8}8,{48}8,1,{16},,,{48},8,1,{12},{4}8-4[16:1],
{48}8,1,{16},,{48},{16}1,{8}8,{48}8,1,{16},,,{48},8,1,{12},{4}8-4[16:1],
{48}8,1,{16},,{48},{16}1,{8}8,{48}8,1,{16},,,{48},8,1,{12},{4}1/8b-4[16:1],
{48}8,1,{16},,{48},{16}1,{8}8,{48}8,1,{16},,,{48},8,1,{12},{4}8-4[16:1],
{48}8,1,{16},,{48},{16}1,{8}8,{48}8,1,{16},,,{48},8,1,{12},{4}8-4[16:1],
{48}8,1,{16},,{48},{16}1,{8}8,{48}8,1,{16},,,{48},8,1,{12},{4}8-4[16:1],
{48}8,1,{16},,{48},{16}1,{8}8,{48}8,1,{16},,,{48},{32}8,1,2,3,{48}8b/4b,3/7,2/6,1/5,
