&title=気まぐれメルシィ
&artist=八王子P
&first=0.85
&des=SnapDot
&lv_6=13+
&inote_6=(160){1},
{4}4,4,4,4,
{4}6,6,6,6,
{4}3,3,3,3,
{4}8,8,8-3[8:1]*-5[8:1],8b,
{16}4/6,,2h[8:1],,4,4,,,3/7,,2,,8,,8,,
{16}1/7,,2h[8:1],,7,7,,,2/5,,6,,4,,4,,
{16}5/3,,7h[8:1],,5,5,,,6/2,,7,,1,,2,,
{16}1/7,,,4/8,,,2/6,,,,3h[8:1],,4h[8:1],,5,,
{16}4/6,,2h[8:1],,4,4,,,3/7,,2,,8,,8,,
{16}1/7,,2h[8:1],,7,7,,,2/5,,6,,4,,4,,
{16}7,5,,2,4,,7,1,,2/8,,,5/6,,3/4,,
{16}1/8,,,5/6,,,1/2,3,4,5,6,7,8,1,2,3,
{4}5-8[8:1],3/5,7-4[8:1],7/2,
{4}1-4[8:1],1/6,3-8[8:1],3/5,
{4}1/7<4[8:1],3/7,3>8[8:1]/5,3/6,
{8}6>3[8:1]/2,,1/6,,2/8,1<6[8:1],2,1/3h[8:1],
{16},,3,,5,5,,,4/6,,3,,2/5,,7,,
{16}1/6,,5h[8:1],,2,2,,,3/4,,5,,3/4,,1,,
{16}5/3,,7h[8:1],,5,5,,,6/2,,7,,1,,2,,
{16}1h[8:1]/7h[8:1],,,3h[8:1]/8h[8:1],,,2/6,,,,3/5,,4/6,,5/6,,
{4}4-1[8:1],6/4,2-5[8:1],2/7,
{4}8-5[8:1],8/3,6-1[8:1],6/4,
{4}8/2>5[8:1],6/2,6<1[8:1]/4,6/3,
{8}3<6[8:1]/7,,8/3,,7/1,8>3[8:1],7,8/6h[8:1],
{16},,6,,4,4,,,5/3,,6,,7/4,,2,,
{16}8/3,,4h[8:1],,7,7,,,6/5,,4,,6/5,,8,,
{16}4/6,,2h[8:1],,4,4,,,3/7,,2,,8,,7,,
{16}8h[8:1]/2h[8:1],,,6h[8:1]/1h[8:1],,,7/3,,,,6/5,,5/4,,4/5,,
{4}4-8[8:1]/5,4/2,5-2[8:1]/1,5/6,
{4}1-5[8:1]/3,1/6,8-3[8:1]/2,6/8,
{4}2-4[8:1]/5-1[8:1],2/5,8-6[8:1]/5-1[8:1],5/8,
{4}7-3[8:1]/8-4[8:1],7q6[4:1]/8>5[4:1],,,
{4}1-5[8:1]/8,1/3,8v3[8:1]/4,8/7,
{4}4-8[8:1]/2,4/7,5v2[8:1]/3,7/5,
{8}1/8,,5/6,5-3[8:1]/6-3[8:1],,5-1[8:1]/6-1[8:1],,5/6,
{8},3/4,,1/2,,7/8,7/8-4[8:1],,
{8}8b/2b-5[8:1],,2b/8b,,7>3[4:1],4,3>6[4:1],4,
{8}5,,4,3h[8:1]/7,,7h[8:1]/8h[8:1],,1,
{8}2/8,1,3/8,7,3/6,5,2/6,1,
{8}3>6[4:1]/5h[8:1],,3/4,4-8[8:1],,{24}1b/4,2,3,,,,,,,
{8}1s5[4:1],,1/5s1[4:1],,6,6,8h[8:1],,
{8}1-5[8:1]/2,,1/8,8-3[8:1],,6/8,,6,
{8}6V42[4:1],,2V86[4:1],,4,4,3,3,
{8}1/2,1-5[8:1]/2-4[8:1],,1/2<6[8:1],,{24}2/6b,5,4,,,,,,,
{16}5,4,5,4,3b/6b,,7,,1/8,,3,,2/8,,6,,
{8}4/5,2,3/6,8,1/7,3,4/8,6,
{8}3/5-8[8:1],6,4/5,,4>1[8:1]/7,3,4/5,,
{8}7/8,7h[8:1]/8h[8:1],,2>5[8:1]/6,,{24}2/6b,7,8,,,,,,,
{4}6-1[8:1],4/6,3-7[8:1],3/5,
{8}8-5[8:1],,2/8,,4/6,4-8[8:1]/6,,2/4,
{16}2,3,4,,1,8,7,,4,3,2,,7-2[8:1],,,,
(165.16)
{1}5b<3[2:1]/7b,
(160)
{16}4/6-8[8:1],,2,,6,5,,,5/6,,8,,3/5,,1,,
{16}2/4,,4/5,,7,4,,,5h[4:1]/6,,8,,4h[8:1],,8,,
{16}3/7-5[8:1],,8,,7,1,,,3/4,,1,,3/5,,7,,
{16}2h[8:1]/8h[8:1],,,4h[8:1]/6h[8:1],,,1<5[4:1]/7,,,,1,,2,,3,,
{16}6/2-4[8:1],,1,,2,8,,,6/5,,8,,6/4,,2,,
{16}7/5,,5/4,,2,5,,,4h[4:1]/3,,1,,5h[8:1],,1,,
{16}4/6,,2,,7,8,,,5/6,,8,,3/5,,1,,
{16}2h[8:1]/8h[8:1],,,4h[8:1]/6h[8:1],,,1<5[4:1]/7,,,,1,,2,,,,
{4}4-8[8:1]/2,3/4,5v2[8:1]/6,5/8-5[8:1],
{4}8-2[8:1]*-3[8:1],8q5[4:1],5<8[4:1],8q3[4:1],
{1}3<2[8:9],
{8},,,,,5,5w1[8:1],5,
{8}5b,,2-5[8:1]*-7[8:1],1,2b,,8-4[8:1],1,
{8}8b/2,,3-7[8:1],4,3b/5,,8-4[8:1],1,
{8}2-5[8:1]/8,,2/7,,4/6,4-8[8:1]/6-8[8:1],,4-2[8:1]/6-2[8:1],
{8},4/6,,8/4,2/6,,,,
{1}1>8[4:5],
{4}3,3,3,3-6[8:1]/5,
{8}3b/7b-2[8:1],,3b<7[4:1]/7b,,7<3[4:1],8,1-5[8:1],8,
{8}1v8[8:1],,1/7,7-3[8:1],,4/7,,2,
{8}5-1[8:1],5,3p7[8:1],3,5q2[8:1],5,1-6[8:1],1,
{8}5-2[8:1],,3/5,3w7[8:1],,3b,,,
{8}1s5[4:1],,1/5z1[4:1],,7,7,8h[8:1],,
{8}1-5[8:1]/2,,8/1,8-3[8:1],,6/8,,,
{8}5-2[8:1],5,3p7[8:1],3,6<1[8:1],6,4p7[8:1],4,
{8}6q2[8:1],6,,1qq2[4:1],,{24}7b/1,6,5,,,,,,,
{16}5,6,3,2,1b-5[8:1]/8b-4[8:1],,,,1b/8b<5[8:1],,,,2-5[8:1]/8,,3,,
{8}2/8-4[8:1],7,8/1-3[8:1],2,1/7-3[8:1],6,7/4>1[8:1],5,
{8}4/6v1[8:1],7,6/2-5[8:1],3,2/8-4[8:1],7,8/3-7[8:1],2,
{8}3/5-1[8:1],6,4/5,3,,{24}1b,2/8,3h[4:1]/7h[4:1],,,,,,,
{24}4/6<1[8:1],,,,,,6/4b,3,2,,,,4>1[8:1]/8,,,,,,8b/4,7,6,,,,
{24}8-4[8:1]/1,,,,,,1b/8,2,3,,,,3>8[8:1]/7,,,,,,3/7b,6,5,,,,
{32}2,3,4,5,6,7,8,1,2,3,4,5,6,7,8,1,2,3,4,5,6,7,8,1,2,3,4,5,6,7,8,1,
{1}2b/6b>8[2:1],
{16}1/7,,3,,5,5,,,4/6,,1,,2/5,,7,,
{16}3/4,,6h[8:1],,3,4,,,1/6,,4,,2/6,,8,,
{16}5/3,,7h[8:1],,5,5,,,6/2,,7,,1,,2,,
{16}1h[8:1]/7h[8:1],,,3h[8:1]/8h[8:1],,,2/6,,,,3/5,,2/7,,5/6,,
{16}8/2,,6,,4,4,,,5/3,,8,,7/4,,2,,
{16}8/3,,4h[8:1],,6,5,,,8/3,,5,,7/3,,1,,
{16}2,5h[8:1],,3,6h[8:1],,4,7h[8:1],,3,8h[8:1],,2,1,2,,
{16}8,2h[8:1],,6,3h[8:1],,5,2h[8:1],,4,1h[8:1],,8,2,8,,
{16}2,4,,7,5,,3,5,,7,1,,8,2,8,,
{16},,1h[8:1]/2h[8:1],,,4h[8:1]/5h[8:1],,,7/8,6,5,4,3-7[8:1],2,1,8,
{1}7b,
