&title=Hydra
&artist=James Landino X Akira Complex
&first=0
&des=FPlane
&lv_6=14+?
&inote_6=(160)
{1}
,
{16}
4x>5[4:5],,,,,,,,,,,,,,,,
,,,,,,,,,,E1,,,C,,,
4x>5[4:4],,,,,,,,,,,,,,,,
,,,,,,,,,,E1,,,C,,,
4x>7[16:10],,,,
{16}
5,,,,5,,,,5,,,,
5,,,,5,,,,5,,64,,,53,,,
4-6[8:1]/2-4[8:1],,,,,,,,8-5[8:1]/5-2[8:1],,,,,,,,
4bx/2bx,,,6bx/5bx,,,4bx/3bx,,,5bx/7bx,,,1bs5b[16:3]/4b,,,,
,,,,6h[16:3],,,,,,,,6h[16:3],,,,,,,,6h[16:3],,,,,,7h[16:2]/5h[16:2],,,6h[16:2]/4h[16:2],,,
5s1[16:3]/3h[16:2],,,,2h[16:3],,,,,,,,2h[16:3],,,,
,,,,2h[16:3],,,,,,2h[16:2]/1,,,2h[16:2]/4,,,
6v1b[8:1],,,,1b,,,,2,5,3,4,2-5[8:1],5,3,4,
2b,,,,7,4,6,5,7,4,6,5,
{24}
7,6,5,1,2,3,
{16}
4>8[16:3]/8,,,7,,,6,,
5<1[16:3],,,2,,,3,,
4qq4[4:1],,,,4<4[16:4],,,,,,,,5xw1[8:1],,,,
5,,,,73,,,,8>3[8:1],,7,,86,,,,
6,5,,3,4-8[8:1],,5,,6-1[8:1]/4,,7,,6/1w5[8:1],,,,
,,,,72,,,,1<6[8:1],,2,,13,,,,
3,4,,6,5-1[8:1],,4,,3<6[8:1]/5,,2,,3/8w4[8:1],,,,
8,,,,7/2,,,,8>3[8:1],,7,,86,,,,
6,5,,3,4-8[8:1],,5,,6-4[8:1]/4,,7,,61,,,,
2qq5[16:5],,,,,,,,6-1[16:2],,,,,,,,
6bx/5bx,,,2bx/4bx,,,5bx/7bx,,,3bx/1bx,,,8b<5[8:1]/6b,,,,
8>3[8:1]/2,,,,6/8<5[8:1],,,,8-4[8:1]/2,,1,,68,,,,
7-4[8:1],5,,5,7-3[8:1],,3,,7<4[8:1],,2,,7/1>4[8:1],,,,
1<6[8:1]/7,,,,3/1>4[8:1],,,,1-5[8:1]/7,,8,,31,,,,
2-5[8:1],4,3,4,2-6[8:1],,6,,2>5[8:1],,7,,2/8-4-8[16:3],,,,
,,,,1,1,2,2,3,3,4,4,5,5,6,6,
7h[8:1],,,,8,8,1,1,2,2,3,3,
{24}
7,6,5,1,2,3,
{16}
8w4[8:1]/4,,,,,,,,1w5[8:1],,,,,,,,
6bxh[8:1],,,4bxh[8:1]/3bxh[8:1],,,5bxh[8:1]/7bxh[8:1],,,2bxh[8:1]/4bxh[8:1],,,8b-3b[8:1]*-4b[8:1]/5b,,,,
8,,,,5>2[8:1],6,7,8,1/5<8[8:1],,,,5-1[8:1]/3,,4,,
5,,,,8-3[8:1],7,6,5,8,,6b,,,7b,,,
8bh[8:1],,,,4<7[8:1],3,2,1,8/4>1[8:1],,,,4-8[8:1]/6,,5,,
4,,,,1-6[8:1],2,3,4,1,,3b,,,2b,,,
1h[8:1]/5h[8:1],,,,1,1,2,2,3,3,4,4,5,5,6,6,
7h[8:1],,,,8,8,1,1,2,2,3,3,
{24}
7,6,5,1,2,3,
{16}
8w4[8:1]/4,,,,,,,,1w5[8:1],,,,,,,,
3bxh[8:1],,,5bxh[8:1]/6bxh[8:1],,,4bxh[8:1]/2bxh[8:1],,,7bxh[8:1]/5bxh[8:1],,,1bs5b[16:3]/4b,,,,
{1}
,,
{4}
C,E1,B2,B4,B6,E8,E2,E4,
5x<4[4:5],,,,,,,,
A5/B5,A6/B6,A7/B7,A8/B8,A1/B1,A2/B2,A3/B3,A4/B4,
5x<4[4:5],C,,C,,C,,C,
{8}
5,4h[8:1],6x,4h[8:1],5,4h[8:1],6x,4h[8:1],5,4h[8:1],6x,4h[8:1],5,4h[8:1],6x,4h[8:1],
{4}
5x<4[4:5],C,,C,,C,,C,
{8}
4,5h[8:1],3x,5h[8:1],4,5h[8:1],3x,5h[8:1],4,5h[8:1],3x,5h[8:1],4,5h[8:1],3x,,
{16}
5h[8:1]/7h[8:1],,,5h[8:1]/7h[8:1],,,1h[16:1]/8h[16:1],,
4h[8:1]/2h[8:1],,,4h[8:1]/2h[8:1],,,1h[16:1]/8h[16:1],,
5h[8:1]/7h[8:1],,,6h[8:1]/4h[8:1],,,2h[16:1]/8h[16:1],,
5h[8:1]/3h[8:1],,,4h[8:1]/6h[8:1],,,
{24}
8h[16:1]/1,2,3,
{16}
4h[8:1]/6h[8:1],,,7h[8:1]/5h[8:1],,,1h[16:1]/8h[16:1],,
4h[8:1]/2h[8:1],,,5h[8:1]/7h[8:1],,,2h[16:1]/8h[16:1],,
3h[8:1]/5h[8:1],,,4h[8:1]/6h[8:1],,,1h[16:1]/8h[16:1],,
2h[16:2]/7h[8:1],,,,
{32}
6,5,4,3,2,1,8,7,
{16}
2b,4,3,4,3,4,3,4,1b,5,4,5,4,5,4,5,
8b,6,5,6,5,6,5,6,1b,5,4,5,
{32}
4,3,2,1,8,7,6,5,
{16}
4>8[16:3]/8,,,7,,,6,,
5<1[16:3],,,2,,,3,,
4>8[32:5],,,,4,,,,
{32}
5,4,3,2,1,8,7,6,3/5h[8:2],,,,,,,,
{32}
1b-5[8:1],8,7,6,5,4,3,2,
{16}
1x,,6,6,5x,7,3,3,4x,2,6,5,
{32}
8b-4[8:1],1,2,3,4,5,6,7,
{16}
8x,,3,3,4x,2,6,6,5x,7,3,4,
{32}
1,8,7,6,5,4,3,2,
{16}
1-3[8:1],,6,6,1-5[8:1],,7,7,1,,,,
{32}
8,1,2,3,4,5,6,7,
{16}
8-6[8:1],,3,3,8-4[8:1],,2,2,8,,,,
{32}
1b-5[8:1],8,7,6,5,4,3,2,
{16}
1x,,6,6,5x,7,3,3,4x,2,6,5,
{32}
8b-4[8:1],1,2,3,4,5,6,7,
{16}
8x,,3,3,4x,2,6,6,5x,7,3,4,
1b/6b,,25,25,,34,34,,8b/3b,,74,74,,65,65,,
1b/8b,,3,2b/4b,,6,5b/7b,,1bs5b[8:1]/8bz4b[8:1],,2b/7b,,1b/8b,,,,
{32}
2bv5[8:1],1,8,7,6,5,4,3,
{16}
2x,,6,6,5x,7,3,3,4x,2,6,5,
{32}
7bv4[8:1],8,1,2,3,4,5,6,
{16}
7x,,3,3,4x,2,6,6,5x,7,3,4,
{32}
1-5[8:1],8,7,6,5,4,3,2,
{16}
1>4[8:1],,7,7,1-5[8:1],,6,6,1,,,,
{32}
8-4[8:1],1,2,3,4,5,6,7,
{16}
8<5[8:1],,2,2,8-4[8:1],,3,3,8,,,,
{32}
2bv5[8:1],1,8,7,6,5,4,3,
{16}
2b,,6,6,5x,7,3,3,4,2,6,5,
7bhx[8:1]/4bhx[8:1],,2,2,1x,3,7,7,8x,6,3,4,
{32}
2x,1x,8x,7x,6x,5x,4x,3x,
{16}
1b/2b,,38,38,,47,47,,8b/7b,,61,61,,52,52,,
1b/8b,,56,4b/7b,,34,2b/5b,,1bv3b[8:1]/8bv6b[8:1],,
3bV15b[16:4]/6bV84b[16:4],,1b/8b,,,,
Cf,,,,2/7,,,,3h[8:1],,1,,4h[8:1],,,,
4,4,3,3,4h[8:1],,1,,5h[8:1],,8,,6h[8:1],,,,
1h[8:1]/8h[8:1],,,,2h[8:1]/7h[8:1],,,,6h[8:1],,8,,5h[8:1],,,,
5,5,6,6,5h[8:1],,8,,4h[8:1],,1,,3h[8:1],,,,
4h[8:1]/5h[8:1],,,,3h[8:1]/6h[8:1],,,,1-4[8:1]/2-5[8:1],,3,,12,,,,
78,,6,,12,,3,,78,,6,,2,2,,8,
8bz4[16:3],,,,,,,,1b-5[16:2],,,,,,,,
4bxh[8:1]/3bxh[8:1],,,5bxh[8:1]/6bxh[8:1],,,4bxh[8:1]/2bxh[8:1],,,7bxh[8:1]/5bxh[8:1],,,1b-6b[8:1]*-5b[8:1]/4b,,,,
1,,,,4<7[8:1],3,2,1,8/4>1[8:1],,,,4-8[8:1]/6,,5,,
4,,,,1-6[8:1],2,3,4,1,,3b,,,2b,,,
1bh[8:1],,,,5-1[8:1],6,7,8,5,,,,
8,7,6,5,4h[8:1],,1,2,3/7<4[8:1],,8,,4w8[8:1],,3,,,,,,
6h[8:1]/2h[8:1],,,,3,3,4,4,5,5,6,6,7,7,8,8,
1h[8:1],,,,6,6,5,5,4,4,3,3,
{32}
7,6,5,4,1,2,3,4,
{4}
8w4[8:1],,1w5[8:1],,
{32}
2b,3,4,,,,8b,7,6,,,,1b,2,3,4,,,1b,8,7,6,,,
{384}
1b,B1,Cf,B5,
{96}
,,,,,
{16}
,,,5x<4[8:12],,,,,,,,
