&title=パリィ (feat. 鏡音レン&鏡音リン)
&artist=宮守文学; 鏡音レン; 鏡音リン
&first=0
&des=ReaL2sN
&lv_5=13+
&inote_5=(140)
{1},,,,
{24}3x/7x,,,1,,,4,,3,,,3,,,8,,,3,4,,3,5,,4,
{24}6,,,1,,,4,,3,,,3,,,,5,,4,5,,2,4,,3,
{24}5,,,7,,,5,,6,,,6,,,1,,,6,5,,6,4,,5,
{24}8-4-2[6:1]*-4-6[6:1],,,4,,,,,,,,A8/D1/D8,,,,,,,Cf/E6/E3,,,,,,
{24}6x/2x,,,8,,,5,,6,,,6,,,1,,,6,5,,6,4,,5,
{24}3,,,8,,,5,,6,,,6,,,,4,,5,4,,7,5,,6,
{24}4,,,2,,,4,,3,,,3,,,8,,,3,4,,3,5,,4,
{24}6h[4:1],,,E1,,,C,,E5,,,A7/E8/A8/A4/E4/A3,,,,Chf[8:3],,,,,,,,,
{16},,4x,,4x,,5,,3,,3,5,,5,2,,
{16}2,7,,7,4,,4v3-1[16:3]*-6[8:1],,5,,,,,,7,7,
{16}3,,4,2h[8:3],{24}E1,E2,E3,E4,E5,E6,{16}E7,,,8>5[16:6],,,,,
{8}4<8[4:1],,8,,5v8[8:1]*v2[8:1],,,,
{8}4p7[8:1],,6<1[8:1],,5p7[8:1],,6,,
{8}5v7[8:1],,3>8[8:1],,4v7[8:1],,3,,
{16}6-8[8:1]/4,,5,,6,,,,3-1[8:1]/5,,4,,3p7[8:1],,,,
{4},E1/E2/E3/E4/E5/E6/E7/E8/D1/D3/D5/D7/Cf,7x-3[8:1]b,B7/B3,
{24}1x/5x,,,3,,4,2,,,2h[8:1],,,6,,5,6,,,6,,5,7h[32:3],,,
{24}3,,1,,,6,8,,,E5,E4,E3,{32}E2,,,,E8,B7,,E6,1-7[32:3],,,,1,,,,
{24},,,5,,8,6,,7,1,,8,2,,,B5/C,,,3,,2,4,,3,
{24}5,,,B8/C,,,7,,7,1,,8,2,,,1,,,2,,,,4v6[8:1],,
{24}4/2,,,1,,1,,,,3v5[8:1],,,3/5,,,8,,8,,,7h[16:1],,,4,
{24}E8,E1,E2,E4,E5,E6,Ch[8:1],,,1-5<7[16:3]*>3[32:3],,,1,,,,,,,,,4h[1:1],,,
{16}1h[8:1],,,8h[8:1],,,7h[8:1],,,6h[8:1],,,5h[8:1],,,,
{2}Ch[2:1],B7/A7/B3/A3,
{24}7b-5[32:3]/1b,,,2V48[16:3],,,7,,,2,,,6,,,6,,5,,,5,7,,6,
{24}8,,,1,,,2,,2,4-8[8:1],,,8-6[32:3],,,4,,1,,,,2-4[8:1],,,
{16}3,,2/1-5[8:1],,8,,1/2,,3,,7,5,,2,4,,
{8}1v6[32:3],7,1,8,1-5[32:3],2,1,3,
{24}2b-4[32:3]/8b,,,7V51[16:3],,,2,,,7,,,3,,,3,,4,,,4,2,,,
{24}1,,,8,,3,4,,2,6,,5,7,,1,8,,4h[6:1],,,,6-8[8:1],,,
{16}7,,5-1[8:1]/6,,4,,6/5,,8w4[8:1],,7/1,1/7,,,,,
{16}1/3,,8/6,,7/2,7/2,,5/4,,,7/3,,A6/A2/B6/B2/B8/B4/Cf,,,,
{1}5<4[2:1],
{4}8-4[8:1],E6,3-1[8:1],B5,8-6[8:1],B4,5-1[8:1],E4,
{4}2-8[8:1],4-6[8:1],3-7[8:1],,
{4}B2/E2/B6/E6,3-6[8:1]b,5,7-3[8:1]/5-7[8:1]b,
{8}7bx/5bx,,8,8,2,5,4-2[8:1],3,
{8}6-8[8:1],7,4-2[8:1],3,6-3[8:1],,4-1[8:1]b,,
{32}4bx,E2f,,,,,,,{8},,2v4[8:1]/1-5[8:1],,1qq5[16:5],,
{4},,3qq5[4:1]/6pp4[4:1],C,
{24}D5f,,,1x,2x,3x,8x,7x,6x,1x,2x,3x,8x,7x,6x,2x,3x,4x,7x,6x,5x,3,,,
{32}1,,,7,5,,,5,6,,,6,4,,,4,5,,,5,2,,,2,4,,,4,3,,,3,
{16}6,E3/B4,,7,E5/B3,,8,,2,E7/B8,,3,E1/B7,,{24}E5,E4,E3,
{16}7-3[8:1],,,,{24}1,,A8,A7,A6,E5,E4,E3,E2,E1,E8,E7,E6,,,1,,,
{24}B7/E8/A7,,1,,1,,4,,1,,2,,4,,2,,3,,4v7[32:3],,,E5/B5,,,
{24},,,1,,1,8,,,2,,2,6,,6,3,,3,5v8[32:3]*v2[32:3],,,5,,,
{24},,,1,,,2/6,,,5,,2,1,,,3,,7,8,,,5,,,
{24}2,,2,4,,4,6,,,8,,,4,,,2-6[32:3]b,,,4v7[32:3]*v1[32:3],,,2,,,
{1},
{1}4>1[2:1],
{1}5<8[2:1],
{1}4p8[2:1],
{1}5q1[2:1],
{2}4p7[2:1],5,
{8}5q2[2:1],,,,4,,,4,
{2}4-1-6[3:1],5-8-3[3:1],
{16}4h[2:1],,,,,,,,2,,1,,2/8,2/8,,C,
{24}2bv4[32:3]/8b,,,7V51[16:3],,,2,,,7,,,3,,,3,,4,,,4,2,,3,
{24}1,,,8-6[8:1],,,6-2[8:1],,,1,,,2,,,4,,8,,,,7<4[8:1],,,
{16}6,,7/8>3[8:1],,1,,8/7,,6,,2,4,,7,5,,
{8}8p3[32:3],2,8,1,8p4[32:3],7,8,6,
{24}7bv5[32:3]/1b,,,2V48[16:3],,,7,,,2,,,6,,,6,,5,,,5,7,,,
{24}8,,,1,,6,5,,7,3,,4,2,,7,8,,5,4,,,3>8[8:1],,,
{16}2,,4<7[8:1]/3,,5,,3/4,,1w5[8:1],,2/8,8/2,,,,,
{16}8/6,,1/3,,2/7,2/7,,4/5,,,2/6,,A3/A7/B3/B7/E8/E4/Cf/D8/D4/B8/B4/E3/A8,,,,
{24}6x/2x,,,8,,,5,,6,,,6,,,1,,,6,5,,6,4,,5,
{24}3,,,8,,,5,,6,,,6,,,,4,,5,4,,7,5,,6,
{24}4,,,2,,,4,,3,,,3,,,8,,,3,4,,3,5,,4,
{24}1-5-7[6:1]*-5-3[6:1],,,5,,,,,,,,A1/D1/D2,,,,,,,Cf/E4/E7,,,,,,
{24}3x/7x,,,1,,,4,,3,,,3,,,8,,,3,4,,3,5,,4,
{24}6,,,1,,,4,,3,,,3,,,,5,,4,5,,2,4,,3,
{24}5,,,7,,,5,,6,,,6,,,1,,,6,5,,6,4,,5,
{24}3h[4:1],,,E1,,,C,,E5,,,A2/E2/A1/A5/E6/A6,,,,Ch[8:3],,,,,,,,,
{1}A6/B6/B3/A3,
E
