&title=Panopticon[FULL]
&artist=r-906
&first=0
&des=IMRIS
&lv_5=13+
&inote_5=(174)
{4},,,,,,,,
{8}2h[8:6]/3h[8:6],,,,,,,2h[8:7]/5h[8:7],,,,,,,,,
{8}7h[8:6]/8h[8:6],,,,,,,7h[8:5]/1h[8:6],,,,,,7,62,,
{8}6h[8:6]/5h[8:6],,,,,,,6h[8:7]/3h[8:7],,,,,,,,,
{8}4h[8:6]/2h[8:6],,,,,,,2h[8:5]/1h[8:6],,,,,,2,83,,
{8}7h[8:2],6,8,1h[8:2],4,2,,2,3,2,3,2h[8:2],,6,62,,
{8}3h[8:2],2,4,5h[8:2],8,6,,7,6,7,8,7p1[8:2],,,,,
{8}8h[8:2],7,5,4h[8:2],7,5,,5,3,5,7,5h[8:2],,2,26,,
{8}1h[8:2],2,4,5h[8:2],2,4,,7h[8:2]/6h[8:2],,,7-2[8:6]/6p3[8:11],,,,,,,,,,,,,,
{16}8,,6,,5,,3,4,3,4,3,,2,,1,,8,,6,,5,,3,4,3,4,3,,2,,,,
{16}8,,6,,5,,3,4,3,4,3,,2,,1,,8,,6,,5,,3,4,3,4,3,,2,,2,3,
{16}4,,6,,7,,1,8,1,8,1,,2,,3,,4,,6,,7,,1,8,1,8,1,,2,,,,
{16}4,,6,,7,,1,8,1,8,1,,2,,3,,4,,6,,7,,1,8,1,8,1,,2,,2,3,
{8}4/6h[8:1],,,6h[8:1]/5,,,6h[8:1]/7,,,6h[8:1]/8,,,6h[8:1]/1-4[8:1],,,,
{16}6,,4,,3,,2,1,2,1,2,,8,,7,,6,,4,,3,,2,1,2,1,2,,8s4[8:15],,,,
{16}3,,5,,6,,7,8,7,8,7,,1,,2,,3,,5,,6,,7,8,7,8,7,,1,,,,
{16}6,,4,,3,,2,1,2,1,2,,8,,7,,6,,4,,3,,2,8,1,7,8,,1^2^3^4^5^6^7^8^1[8:24],1,1,1,
{1}1s5[8:2],6-8v1-3[8:3],3-7v5[8:3],7-5v4-2[8:3],7-3v5[8:3],1V75<6-2[8:3],
{8}1s5[8:2],,,,,,6,18,,72,36,54,5h[8:1]/4h[8:1],,{16}5^4^3^2^1^8^7^6^5[8:24],64,73,82,
{1}1s5[8:2],6-8v1-3[8:3],6-2v4[8:3],7-5v4-2[8:3],7-3v5[8:3],1V75<6-2[8:3],
{8}1s5[8:2],,,,,,6,18,,72,36,54,5h[8:1]/4h[8:1],,{16}5,6,7,8,
{32}1/2q7[8:4],3,4,,{8},E4,,,,A3,,{32}4/7p2[8:4],6,5,,{8},E2,,,,B8,,
{32}1h[8:2],,,,3,4,5,,{8},1h[8:1],5,6,2h[8:1],7,3,3h[8:1],8,6h[8:2],,4,35,,
{32}2/5q3[8:4],6,7,,{8},E8,,,,B6,,{32}5/4p6[8:4],3,2,,{8},A1,,,,B3,,
{32}4h[8:2],,,,6,7,8,,{8},4h[8:1],8,7,3h[8:1],6,4,4h[8:1],2,8h[8:1],{16}5,5,7h[8:2],,6,,8,,
{32}8q2[8:4]/6,5,4,,{8},B3,,,,B5,,{32}5p3[8:4]/8,7,6,,{8},B7,,,,E6,,
{32}6h[8:2],,,,4,3,2,,{8},6h[8:1],2,3,7h[8:1],4,6,6,5,5,{16}4,4,6,,72,,4,,
{16}6,5,4,3>7[8:3],{8},,,,5,,{16}2,1,8,7<2[8:3],{8},,,,1,,
{32}3pp8[8:5]/1qq7[8:5],48,57,6,{8},,,,,,,{64}C,B3,,,,,,,{8},,,
{8},1,1-6[8:1],,12,3,7<5[8:1]/4,{16}8,,
{8}4-8[8:1],3,7<5[8:1],,4-8[8:1],3,7<5[8:1],,4-8[8:1],3,6V48[8:2],,6,2V48[8:2],,2,
{8}6-4[8:1],,6,2,,71,62,53,7v8[8:1]/1v8[8:1],,,,
{8}7h[8:1],5,6h[8:1]/4,3,{16}2,4,2,,{8}1,8/2>5[8:2],,6,7,8<5[8:2],
{8},3,2,1-5[8:1],,6,7h[8:1],{16}3,4,2,4,3,,{8}35,4h[8:1]/6h[8:1],,46,8,{16}7,5,
{16}6,5,{8}7,8-4[8:1],,48,3,2<7[8:1]/5,{16}3,,
{8}5-8[8:1],4,2<7[8:1],,5-8[8:1],4,2<7[8:1],,5-8[8:1],4,2-5-8[8:2],,2,7V58[8:2],,7,
{8}2-5[8:1],,2,6,,1/7,2/6,3/5,1v8[8:1]/7v8[8:1],,,,
{8}1h[8:1],3,2h[8:1]/4,5,{16}6,4,6,,{8}7,8/6>3[8:2],,2,1,8>3[8:2],
{8},5,6,7-3[8:1],,2,1h[8:1],{16}5,4,6,4,5,,{8}53,4h[8:1]/2h[8:1],,4/2,1,{16}1,7,2,6,1,,7,6,5,4,
{1}2-7[8:6]/3q6[8:11],,7-5-2-7[8:11],,8-3-6-8[8:11],,2-8-5-2[8:11],,
{16}6b,,,,6,,,,64,4,,,6,,4,4,7,,,,7,,,,74,4,,,7,,4,4,
{16}8,,,,8,,,,84,4,,,8,,4,4,1,,,,1,,,,14,4,,,1,,4,4,
{16}2x,,,,2,,,,25,5,,,2,,5,5,3,,5,,5,,5,6,71,,1,,1,,1,2,37,7,6,6,5,5,4,4,3,3,2,2,
{32}1,8,7,6,5,4,3,2,{8}1s5[8:4]*z5[8:4],,,,,,,,
{32}2h[8:6]/5h[32:6],,,,,,,6,7h[8:1],,,,,6,5h[32:14],,,,,,,,,,,,,,2,,,,
{32}2h[8:3]/5h[32:6],,,,,,,6,7h,,,,5,,,,
{32}5/2h[32:4],,,,6,3h[32:2],,,7h/4,,,,8/5h,,,,
{32}7h[8:6]/4h[32:6],,,,,,,3,2h[8:1],,,,,3,4h[32:14],,,,,,,,,,,,,,7,,,,
{32}7h[8:3]/4h[32:6],,,,,,,3,2h,,,,4,,,,{32}5,6,7,8,1,2,3,4,5,6,7,8,1,2,3,4,
{8}5b<8[8:2],,8>3[8:2],8,3<6[8:2],3,6V42[8:2],6,7,7,,7V15[8:2]/1,,2,3,4,
{8}5<8[8:2],,8>3[8:2],8,3<6[8:2],3,6V42[8:2],6,7,7,,7V15[8:2]/1,,2,3,4,
{8}5<8[8:2],,8>3[8:2],8,3<6[8:2],3,6V42[8:2],6,7,7,,7V15[8:2]/1,,2,3,4,
{16}6h[16:3],,,8h[16:3],,,2h[8:1],,5h[16:3],,,3h[16:3],,,1h[8:1],,
{8}8h[8:1],7,65,4,4,4,{24}4x,4x,4x,4x,4x,4x>4>4[8:50],
{1}1xs5[8:2],6-8v1-3[8:3],7-3v5[8:3],7-5v4-2[8:3],7-3v5[8:3],1V75<6-2[8:3],
{8}1s5[8:2],,,,,,,73,,6h[8:1]/4h[8:1],,5,4h[8:1]/6h[8:1],,{24}4,3,2,7-3-1[8:13],6,5,
{1}4b/1bs5-7[8:12],,
{8}8h[8:2],5,1>4-8[8:2],4,
{8}1,5,,8h[8:1]/6h[8:1],,1h[8:1]/5h[8:1],,6v5-3[8:2]/8h[8:1],,A1/E2,A1/E2,,
{8}2h[8:2],6,8V26[8:2],5,8,4,,4h[8:1]/8h[8:1],,5h[8:1]/7h[8:1],,2V41[8:2]/5V74[8:2],
{8},,,,8h[8:2],3,1<6-2[8:2],4,
{8}1,5,,3h[8:1]/7h[8:1],,2h[8:1]/6h[8:1],,7-2[8:1]/3,,7,{16}3x,4x,5x,6x,
{8}Chf[8:2],,1b,{16}3,4,2,4,3,,5,,4h[8:1]/7,,6,,4h[8:1]/7,,6,,4V25[8:2]/7,,,,7,,6,,6x,7x,
{8}8xh[8:1],4,2,{16}6,5,7,5,6,,4,,5h[8:1]/2,,3,,5h[8:1]/2,,3,,5/2,,,,2/E7/B6,,3/E7/B6,,3x,2x,
{8}1x/7x,6,5-2[8:1]/4,2-6[8:1],5,1-4-8[8:2],,8,7,6<1[8:1],5,46,,5,6,7,
{16}8,,2,1,8xb/3x,,4,5,3,,2xb/6x,5,3,,7,4,8xb/3x,,2,7,1xb/6x,,2,7,1,8,2,7,3,6,4,5,
{8}2-8[8:1],7,2/6-2[8:1],5,6/2-4[8:1],1,6-2[8:1],,6/2<7[8:1],3,6-2[8:1],,6/2>5[8:1],1,6V83[8:2],,6,6V41[8:2],,6,6-2[8:1],,6,8,,12,34,56,7<4[8:1]/8,B1/E2,B1/E2,,
{8}1-4[8:1],1,7-3[8:1],7,5>1[8:1],5,6,7qq8[8:3],,4,3,2pp8[8:3],,6,5,7h[8:6],,6,8,5,2,4,,4h[8:1]/6h[8:1],,3h[8:1]/5h[8:1],,4/6,,4,{24}8,7,6,2,3,4,
{8}7-1[8:1],2,7/3-7[8:1],4,3/7-5[8:1],8,3-7[8:1],,3/7>2[8:1],6,3-7[8:1],,3/7<4[8:1],8,3V16[8:2],,3,3V58[8:2],,3,3-7[8:1],,3,1,,87,65,43,2>5[8:1]/1,B8/E8,B8/E8,,
{8}7-3[8:1],7,8-4[8:1],8,1-5[8:1],1<2[8:4],2,1b,,,,,{16}1,8,1,8,{24}2,7,2,7,2,7,
{8}1-5[8:1],2,1/5>2[8:1],7,6/5<8[8:1],5,4/5-2[8:1],,7/5-8[8:1],6,3/5-3>2[8:1],,
{8}7/5-7>8[8:1],6,3/5V31[8:2],,5,7V53[8:2],,7,1V75[8:2],,1,3V16[8:2],,3/7V52[8:2],6,7,8,E8/B8,E8/B8,3,25,6,37,2,16,7,83,2qq4[8:3],,4,5,6pp4>5-3-8b[8:9],,3q8[8:2],,3b,
{8},,,,,,,4,75,6,24,3,4h[8:1]/5h[8:1],,{24}3,6,3,6,3,6,
{8}1-3[8:1],4-8[8:1],1,4,2-6[8:1],7-1[8:1],2,7,3-6b[8:1],6>3b[8:1],3,7,8qq8b[8:2],3,
{8}4>2[8:1],4,4<6[8:1],6,4-1[8:1],2,4-7[8:1],6,4-8b[8:1],2,4b/8pp3[8:3]*qq5[8:3],,,,
{8}Cf,,,,7h[8:1]/8,5,4/3h[8:1],1,2-6[8:1]/8,7,26,4<8[8:2],,2,3,5>1[8:2],,7,6,5w1[8:5],,,,,,,,,
{8}3,4>6[8:5],5,6,,6,{16}6x-2[8:7],5x,4x,3x,{8}2xb,1,3,8,,3,3-7[8:7],,
{8}7,8,6,1,,6,6-2[8:7],,2,1,3,8,,3,3-7[8:7],,7,8,6,1,,6,6,,5,6,7,8-5[8:1]/2p5[8:1],,82,,,5,4,3,2qq5[16:5],,7,7,,8,4,1,5<1[8:2],,1>5[8:2],1,,6,7,6,7qq1[16:5],,1,
{24}A2,D3,A3,D4,A4,D5,
{8}5xh[8:1],7,8V62[8:2],3,8,4h[8:1],,8h[8:1]/3h[8:1],,5h[8:1]/2h[8:1],,8h[8:1]/3h[8:1],,2/6-3[8:1],26,,
{8}4xh[8:1],2,1V37[8:2],6,1,5h[8:1],,1h[8:1]/6h[8:1],,4h[8:1]/7h[8:1],,1h[8:1]/6h[8:1],,7/3-6[8:1],73,,
{8}7-5[8:1],8,4-7-5b[8:2],3,2,2V47[8:2],,7V13[8:2],6,5<8[8:1],6,,,3,2,1,
{8}2-4[8:1],1,5-2-4b[8:2],6,7,7V52[8:2],,2V86[8:2],3,4>1[8:1],3,,,6,
{32}61,2,3,4,5,6,7,8,1bs5[1:4]/5b-7-3-1[1:4],{1},,,,{8},,,E
