&title=うたかたのせかいで
&artist= DJ Raisei vs Setca. feat.nayuta
&first=1.24
&des=SJTU Chart Team "導師" vs "使勁拖"
&lv_5=14+
&inote_5=(216)
{1},
{4},,,,
1bV35V71>5<1>2V46V82b[4:14],,,,
,,,,,,,,,,,,
8b<3p8<7p4>8[4:14],,,,,,,,,,,,,,,,
{16}34,,,,3,,5,,3,,,,3,,,,3/4<5<6<7>8b[4:2],,,,3,,,,3,,,,3,,,,
{16}71,,,,7,,1-5>3[8:3],,7,,,,7,,,,{16}7,,,,7,2,,,47,,,5,7,,,,
{8}6/5-1[8:1],6,6,6,6/4-2[8:1],6,6,6,1/4-8[8:1],1,1,1,2/5-7[8:1],2,2,2,
{16}3h[16:2]/1h[8:1],,,4h[8:1]/6h[8:1],,,7/1,,2h[8:1]/4h[8:1],,,1h[8:1]/7h[8:1],,,46,,
{16}2,4,2,4,3,5,3,5,4,6,4,6,5-1[8:1],7,5,7,
{4}5bqq5>5[4:5]*bpp5<5[4:5]/Cf,,,,,,,1b-5[8:1],
{8}18,7,6-2[8:1],,4-1[8:1],,8-5[8:1],,2-7[8:1],,4V68[4:1],,8V64[4:1],1,2,,
{8}3-7[8:1],3,{4}5-8[8:1],1-4[8:1],7-2[8:1],
5V31[4:1],1V35[4:1],{8}6,7,8-4[8:1],,
18,,{16}2-5[16:1],,,6-1[16:1],,,3-8[16:1],,,,7,,
,,5h[8:1],,3,,,,2,8,2,8,2-5[8:1],,,,
6-2[8:1],,,,4,,3>8[8:1],,,,3,,7-4[8:1],,,,
7,,1,,1,,2,3,46,,7,,1/8-4[8:1],,,,
{8}81,2,35,3,73,3,25,5,
25,3,47,6,25,3,84,7,
{16}46,,3,8,{8}3,
7,46,3,42,1,
{16}7h[8:1]/1h[8:1],,,4h[8:1]/6h[8:1],,,2xh[32:1],8xh[32:1],2xh[32:1],,,3/5,,,78,,
4x-1[8:1]/5x-8[8:1],,,,4b/5b,,,,
{8}7xh[4:3]/E2,B4,B8,B6,B2,B4,,
{16}1x,2x,{8}3x/8,8,
{8}7V53[8:2],,3<8[8:2],,B1/E2,,
B3/E4,B7/E8,
B1/B2,B5/E5,
{16}B3/E3,,E7/B7/4x,,,3x/5x,,,2x,,,,2/1-6-1[4:1],,,,
{8}7b/1b-4-7-2-5-8q3b[8:10],,,6xhb[8:7],,,,,,,,,,
8b,,,
{8}7b,4b/6b-3-8-5-2-7p4[8:11],,2hb[8:11],,,,,,,,,,,,,
3b/5,5,5,4hb[8:4],6,6,7,7,
8b/3,3,3,6hb[8:4],2,2,1,1,
{16}7b/1b,,,6bx/4bx,,,3bx/4bx,,2b/8b,,,3bx/5bx,,,6bx/5bx,,
8,7,8,7,1,6,1,6,2,5,2,5,2v3-5[4:6],,,,
{4}7bV51b[4:5],,,,,,,1-5[8:1],
{8}18,,6,6,2-4[8:1],5,2-6[8:1],6-1[8:1],2,,4-7[8:1],,2-5[8:1],2,8>3[8:1],,8,,4-8[8:1],4,,6,7<4[8:1],,
71,2,3-8[8:1],4,5,6,7-4[8:1],,
7,,3,2>5[8:1],,6,7>2[4:1],,2V85[4:1],,5V37[8:2],,3,,2,,
1<6[8:1],,1,5-1[8:1],,2-4[8:1]*-6[8:1],,2<3[8:3],,,,,,,5xqq3[8:1]*pp7[8:1],,
{8}5,,2x,8,7-5[8:1],1,7-3[8:1],3-8[8:1],7,,5-2[8:1],,7-4[8:1],,1<6[8:1],,1,,5-2[8:1],5,,8-3[8:1]*-5[8:1],,8<2[8:3],
,,,,,,17,,
8-4[8:1]/3-8[8:1],,8>6[8:3],,,6,7,,8<3[4:1],,3V58[4:1],,8,,2,,
{16}3xb/5xb,,,5xb/7xb,,,1xb/8xb,,7xb/5xb,,,4xb/2xb,,,1xb/8xb,,
{1}5bqq2[4:2]*pp8[4:2],
{16}1b-5[8:1]/6b-1[8:1],,,,1/6,,,,3,4,3,4,3,,6,5,6,5,6,,1,8,2,,35,,3,,64,,6,,3b-8[8:1]/7b-4[8:1],,,,37,,,,6xh[8:3],,8,,1,,2,,3h[8:2],,1,,8,,73,62,1/5-1[8:1],
,,,,,,,
8b-4[8:1]/3b-8[8:1],,,,83,,,,7,5,6,5,6,,2,4,3,4,3,,1,8,2,7,3-8[8:1],,4,,5,,6,,
{8}1xb-4[8:1]/7xb-4[8:1],,17,,,5,63,7,
{16}8h[8:1],4,,,7h[8:1],3,,,6h[8:1],2,,,5h[8:1]/1-6-1[4:1],,,,
{8}5b/1b-4-7-2-5-8q3b[8:10],,,6xhb[8:7],,,,,,,,,,
8b,,,
{8}7b,3b/6b-3-8-5-2-7p4[8:11],,2hb[8:11],,,,,,,,,,,,,
3b/5,5,5,4hb[8:4],6,6,7,7,
8b/3,3,3,6hb[8:4],2,2,1,1,
{16}7b/1b,,,6b/4b,,,2b/1b,,3b/5b,,,1b/7b,,,6b/5b,,
3,4,3,4,2,5,2,5,1,2,3,4,6,7,8,1,
{32}3,4,5,6,7,8,1,2,3,4,5,6,7,8,1,2,
37,6,5,4,3,2,1,8,7,6,5,4,3,2,1,8,
{4}3bxp3>3[4:30]/7bxp7<7[4:30],,,,
{1},,,,,,,
{8}24,,2,/6h[8:1],2,,2,,2/8<7<6>5>4b[4:2],,2,,2,,2,,53,,5,1h[8:1],5,,5,,61,{16},2,6,,
,3,6,,,4,6,,,,
{8}6/5-1[8:1],6,6,6,6/4-2[8:1],6,6,6,1/4-8[8:1],1,1,1,2/5-7[8:1],2,2,2,
{16}3hbx[16:2]/1hbx[8:1],,,4hbx[8:1]/6hbx[8:1],,,7bx/1bx,,2hbx[8:1]/4hbx[8:1],,,1hbx[8:1]/7hbx[8:1],,,4bx/6bx,,
{16}2x,4x,3,5,4,6,5,7,
{32}4x,3,2,1,8,7,6,5,4,3,2,1,8,7,6,5,
{1}4/C,2>5[4:2]/C,6<1[4:2]/C,4>8[4:2]/C,
{4}Chf[4:3]/E1/B7/B2/B5/B4,,,
{4}1s5[8:1],
1b>8[8:4]*<2[8:4],,,,
{4}1-5[8:1],7-3[8:1]/1-3[8:1],1/7-5[8:1],7/4-8[8:1],
{8}4/3V17[8:2],,7>3[8:2],5-1[8:1],,5,,,8-4[8:1],,3-7[8:1]/8,,3/5-1[8:1],,5/2>5[8:1]*<7[8:1],,
2,,6h[8:1],8-3[8:1],8,5,5<8[8:1],,2-4[8:1]/5,,2/6-1[8:1],,2>5[8:1]/6,,2,,1<5[8:1]/3x,,
1,2>5[8:2],,5xqq1[8:3],,8-6[8:1],,8,,,{16}15,,,2-5[16:1]/6-1[16:1],,,6/2,,
{8},,7-4[8:1],4V61[8:1],7/2-6[8:1],3,2,,
{4}8-4[8:1],2-6[8:1]/8-6[8:1],8/2-4[8:1],2/5-1[8:1],
{8}5/6V82[8:2],,{16}2<6[8:2],3,4-8[8:1],,{8},4,,17,
17,17,{16}2,4,3,5,4,6,5,,2/8-4[8:1],,,,8b/4b>8[16:3],,2hb[16:5],,,,,,3x/7x,4x/6x,5bx,,
1-5[8:1],,,,1b/5b<1[16:3],,7hb[16:5],,,,,,6x/2x,5x/3x,4xh[8:1],,8x,,8x/4x,73,
{8}6x/2x,1x,35,7,{16}4,6,3,5,{32}2x,1,8,7,6,5,4,3,
{4}2p2[8:2]/6q6[8:2],,,2p6-3-8[4:3],2-5-8b[4:2],,,,
{16}7b-5[8:1]/8x,1,2,3,4/7b>1[8:1],,,,3/7b-3[8:1],,,,2xb-6[8:1]/7,,,,
{8}1/2b-4[8:1],,2b<8[8:1]/8,,7/2b-4[8:1],,6/2b,,
6x/5,6x/5,7x<5[8:1]/4-2[8:1]
,,7x-1[8:1]/4,,7x/4,{16},,{8}4x/7-4[8:1],{16}4,3,{8}2/7-1[8:1],2x>5[8:1],7,2,7,,
{16}46,,3,4,2-8[8:1],,,,2-6[8:1]/7-4[8:1],,,,2/7,,,,12,,38,,
47,,,6,5,,74,,2,4,,,
{8}3-7[8:1]/7-4[8:1],,7V14[8:3]/3,,,4-6-2[8:2],6,,
,,{32}8,7,6,5,4,3,2,1,{16}8h[8:1]/3xh[8:1],,,4h[8:1]/7h[8:1],,,56,,
{16}2xb-4[8:1]/1x,8,7,6,5/2b<8[8:1],,,,6/2b-6[8:1],,,,7bx-3[8:1]/2,,,,
{8}1/7b-5[8:1],1,7b>1[8:1]/1,,2/7b-5[8:1],,37b,3,
{16}4x,5x,4x,,3>8[8:1]/7<4[8:1],,,,7/3x-7[8:1],,,,3/1x-4[8:1],,,,
{16}1/8xh[16:3],,,5x,7xh[16:3],
,,4x,6x-1[12:1],,,,2x>5[8:1],,,,
{32}1x/2,8,7,6h[32:5],,,,,B8/B1/E1/D1f,,,,,,,,
2h,3x,,,
5h,6x,,,
3h,4x,,,
6h,7x,,,
2h,3x,,,
5h,6x,,,
3h,4x,,,
6h,7x,,,
E3,B3,,,
E8,B7,,,
E2,B1,,,
B5,E6,,,
{8}
3x-8[8:1]/4x-7[8:1],,34,,{16}2,1,2h[16:1],,7,8,7h[16:1],,
{32}1xb,2,3,4,,,2b,3,4,5,,,{32}2x,,2x,,{32}8b,7,6,5,,,7b,6,5,4,,,{32}7x,,7x,,
{32}8b,1,2,3,,,1b,2,3,4,,,{32}2xh[32:1],,2xh[32:1],,{32}1b,8,7,6,,,8b,7,6,5,,,7xb/3xb,6/2,5/1,4/8,
{8}7xq7[4:2]/3xq3[4:2],,,,,,,,2pp5[4:6],,,,,,,,{32}B8,B7,,,,,,,{4},,,
{8}6pp1[4:6],,,,,,,,{32}B4,B3,,,,,,,{4},,,
{8}4qq8[4:6],,,,,,,,{32}B5,B6,,,,,,,{4},,,
{4}7,8,1,2p8[4:8],{12},,6p4b[8:13],,,,,,,,,,,,,,,,,,,,,,,,,
E
