&title=Fire Bird
&artist=Roselia
&first=-0.25
&des=Yutto
&lv_5=14
&lv_6=13+
&inote_5=(80){4},,,
{8}5h[4:1]/3,4,3,4,6h[4:1]/3,4,3,4,
4h[4:1]/8,6,7,6,3h[4:1]/7,6,7,6,
5h[4:1]/4,3,4,3,4h[8:3]/5,6,7,6,
{8}4/5h[8:3],3,2,4,{8}35,4,4-1[16:1],5,
{8}7qq4[4:2]/4,8,3,1,2,8,1-4[16:1],5,
{8}1/6pp1[4:2],5,3,5,4,5,2,3,
{8}3p6[8:1]/5h[8:3],{4},{16},,{8}7p2[8:1]/4h[8:3],,,{16},,
{8}4/6,8,(76)5/3,2,(74)5-1[8:1]/6,7,(72)5/3,{16}3,,
(70){8}2/8h[4:1],1,2h[4:1],3,(64)4h[8:1],5,5-8[8:1]/4-1[8:1],63,
(59.9){4}4-7<5b[32:37]/5-2>4b[32:37],
(56.3){4},,,,,{16},,,,,,{32},,,,{4},
(150){8}1,,1,,1-4[8:1],1,1,
{16}5,5,
{16}7-4[16:1]/3,,,1-5[16:1]/7,,,1/6h[8:1],,,,6,5x,74,,8,1,7/2>5[8:1],,1,,2/8-4[8:1],,7,,8/2-5[8:1],,1,,82,,6,,
{16}2-5[16:1]/6,,,8-4[16:1]/2,,,8/3h[8:1],,,,3,4x,25,,1,8,2/7<4[8:1],,8,,7/3-8[8:1],,2,,3/7-4[8:1],,6,,37,,2,,
1h[8:1],,4,,4/3h[8:1],,4,,4/6,,4,2,4,,3/5,,
4,,6/5h[8:1],,6h[8:1],,7,,56,,5,8,5,,17,,
8,8,3xh[16:1],5,3xh[16:1],4,2,2,6xh[16:1],5,6,3xh[16:1],4,3,7xh[16:1],,
3,3,6xh[16:1],4,6xh[16:1],5,7,7,3xh[16:1],5,1,6xh[16:1],4>1[8:1],7,5,6,
4,,,,7,8,7,8,5,4,6,3,8-4[8:1],1,7,2,
8,,,,3,4,2,5,1-7[8:1],,6,6,1-3[8:1],,4,4,
1,,,,6,5,7,4,7-5[8:1],,5-8-4[4:1],,7,,2,
2h[16:3],,,,,3,5,4,6,5,7,6,8,1-5[8:1],7,2,8,
1,,,,6,5,6,7,
6,5,6,8,
7-4[8:1],1,8,,
72,,3-1[8:1],,5,5,3,,7,8,7,1,8,1,8,1,2bh[16:4]/6bh[4:1],,,,,,1,1,
2-5[16:1]/8,,,8-4[16:1]/2,,,8/1,2,3h[4:3],,,E6/B5/B6,,,B1/B2/E2,,,,B7/B8/E8f,,,,4,4,
3qq8[8:5]/5-7[8:1],,,,5,,,,7-3[8:1],,,,7,,,,4<1[4:1],,,,1<5[4:1],,2,2h[16:5],,,,,,,3,3,
4pp7[8:5]/2-8[8:1],,,,2,,,,8-3[8:1],,,,8,,,,{12}1<2[12:6],,2>7[12:4],,,,,,,{16},,8,8,
1pp5[8:5]/7-4[8:1],,,,7,,,,6-8[8:1],,,,6,,,,4pp4[4:1]/8,,,,8/4qq4[4:1],,,8h[16:5],,,,,,,5,6,
4/7h[16:3],,,1h[16:3],,,5,,2v5[8:1]/6v1[8:1],,,,26
,,,,
1x<4[8:5]/5x
,,5,,4,,4,,3,,3,,2,,2,,
24,,2,,26,,2,,28,,2,4,2,,25,,
1,8,2,5,4,6,2,4,3,7,5,6,1,4,3,8,5,6h,
1h,5h,3h,8h,4h,6h,
1b>4[8:1]/5b<8[8:1],,,,1bw5[8:1],,,,Cf/B1/B5
,,,,,,8,8,2-5[8:1],1,3,8,2,6,6,,
7-4[8:1],8,6,1,7,1,1-5[8:1],,5-2[8:1],,1,,6,,7,,
{32}3xh[32:3]/8bx>3[32:3],7,6,5,,,,,8b/4b,5,6,7,,,,,7bh[32:3]/4b<7[32:3],3,2,1,,,,,8b/4b,1,2,3,,,,,
{32}8b/4bh[8:1],7,6,5,,3,2,1,8,7,6,5,{8}4b/2b>4-7b[8:1],7b<5-2b[16:2],,,
{16}8,8,
7h[8:1]/1,,4,,2,1,2,,56,,4/2,,1-5-7[8:2],8,2,,1/7-3[8:1],,8h[8:1],,,,8,8,2-5[8:1],,6v1[8:1],,2,,6,,
3-1[16:1],,,5<8[16:1]/3,,,5/8,1,2-5[16:1],,,8-4[16:1]/2,,,8/3,,
3h[8:1],,1,2,8,3,7,4,6b,5,5,8b,4w8b[32:4],4,2b,2,
4/Cf/B4/B8,,,,,,5,5,3-8[8:1],4,2,1,3,,5,,
6-1[8:1],4,7,8,6,,4-1[8:1]*v7[8:1],,4,,,,,,2x,,
{32}1bx-6[32:3]/7bhx[32:3],2,3,4,,,,,1b/5b,4,3,2,,,,,5b-2[32:3]/2bh[32:3],6,7,8,,,,,5b/1b,8,7,6,,,,,
{32}1b/5bh[32:3],2,3,4,,6,7,8,1,2,3,4,{8}5b/6b<2[8:1],2bxp6[16:2],,,{16},,
{16}4h[16:3]/5x,,,3h[16:3],,,2h[8:1],,5<8[8:1],3,4,2,5,,4,,
2h[16:2]/1h[8:1],,,7h[16:2]/5h[8:1],,,42,,1>4[8:1],8,5,6,1,7,7,,
8qq4[8:2],,,4,,,3,,2p6[8:1],,,,6<4[8:3],,,,
4,,,5,,,6,,
7h[8:1],,{24}5,6,4,{16}5,,2,1,
3qq8[8:2]/8,,,7,,,6,,5-2[8:1],,,,5/8<5[16:2],,,,8/1,,3,,
2,8,2,6,2,4,2,6,3,8,3,6,2/7-4[16:1],,,7/3-8[16:1],,,3,,
{8}5pp7[8:1]*qq3[8:1],,5-1b[8:1],,5<5b[8:3],
{16},A7f/E7/E8/B7,,,A3f/E3/E4/B3,,
,,,,1,8,2,7,
{16}1-5[8:1],,,,1/7-4[8:1],,,,7/3-7[8:1],,,,8-4b[16:1],,,,
8/2b-5b[16:1],,,6b-1b[16:1],,,3hb[8:2],,,,,,8,1,8,1,
7-3[8:1],,3-5[8:1],,7,,2,,
{24}1x,8,7,6,5,4,
{16}3b/8b,,,,
8h[8:1],,5,,5/6h[8:1],,5,,5/3,,5,7,5,,6/4,,
5,,3/4h[8:1],,3h[8:1],,2,,43,,4,1,4,,82,,
3,5,3bh[16:1],6,3bh[16:1],7,3,8,3bh[16:1],1,3
,1bh[16:1],3,1,3bh[16:1],,
6,4,6bh[16:1],3,6bh[16:1],2,6,1,6bh[16:1],8,6
,8bh[16:1],6,8,6bh[16:1],,
{24}3,5,3,6,4,6,3,5,2,6,4,7,3,8,3,8,3,8,2/1,,,8/7v4[4:4]*pp8-5[4:8],,,,,,
E
&inote_6=(80){4},,,
{8}5h[4:1]/3,4,3,4,6h[4:1]/3,4,3,4,
4h[4:1]/8,6,7,6,3h[4:1]/7,6,7,6,
5h[4:1]/4,3,4,3,4h[8:3]/5,6,7,6,
{8}4/5h[8:3],3,2,4,{8}35,4,4-1[16:1],5,
{8}7qq4[4:2]/4,8,3,1,2,8,1-4[16:1],5,
{8}1/6pp1[4:2],5,3,5,4,5,2,3,
{8}3p6[8:1]/5h[8:3],{4},{16},,{8}7p2[8:1]/4h[8:3],,,{16},,
{8}4/6,8,(76)5/3,2,(74)5-1[8:1]/6,7,(72)5/3,{16}3,,
(70){8}2/8h[4:1],1,2h[4:1],3,(64)4h[8:1],5,5-8[8:1]/4-1[8:1],63,
(59.9){4}4-7<5b[32:37]/5-2>4b[32:37],
(56.3){4},,,,,{16},,,,,,{32},,,,{4},
(150){8}1,,1,,1-4[8:1],1,1,
{16}5,5,
{16}7-4[16:1]/3,,,1-5[16:1]/7,,,1/6h[8:1],,,,6,5x,74,,8,1,7/2>5[8:1],,1,,2/8-4[8:1],,7,,8/2-5[8:1],,1,,82,,6,,
{16}2-5[16:1]/6,,,8-4[16:1]/2,,,8/3h[8:1],,,,3,4x,25,,1,8,2/7<4[8:1],,8,,7/3-8[8:1],,2,,3/7-4[8:1],,6,,37,,2,,
1h[8:1],,4,,4/3h[8:1],,4,,4/6,,4,2,4,,3/5,,
4,,6/5h[8:1],,6h[8:1],,7,,56,,5,8,5,,17,,
8,8,3xh[16:1],5,3xh[16:1],4,2,2,6xh[16:1],5,6,3xh[16:1],4,3,7xh[16:1],,
3,3,6xh[16:1],4,6xh[16:1],5,7,7,3xh[16:1],5,1,6xh[16:1],4>1[8:1],7,5,6,
4,,,,7,8,7,8,5,4,6,3,8-4[8:1],1,7,2,
8,,,,3,4,2,5,1-7[8:1],,6,6,1-3[8:1],,4,4,
1,,,,6,5,7,4,7-5[8:1],,5-8-4[4:1],,7,,2,
2h[16:3],,,,,3,5,4,6,5,7,6,8,1-5[8:1],7,2,8,
1,,,,6,5,6,7,
6,5,6,8,
7-4[8:1],1,8,,
72,,3>1[8:1],,5,5,3,,7,8,7,1,8,1,8,1,2bh[16:4]/7bh[4:1],,,,,,1,1,
2-5[16:1]/8,,,8-4[16:1]/2,,,8/1,2,3h[4:3],,,E6/B5/B6,,,B1/B2/E2,,,,B7/B8/E8f,,,,4,4,
3qq8[8:5]/5-7[8:1],,,,5,,,,7-3[8:1],,,,7,,,,4<1[4:1],,,,1<5[4:1],,2,2h[16:5],,,,,,,3,3,
4pp7[8:5]/2-8[8:1],,,,2,,,,8-3[8:1],,,,8,,,,{12}1<2[12:6],,2>7[12:4],,,,,,,{16},,8,8,
1pp5[8:5]/7-4[8:1],,,,7,,,,6-8[8:1],,,,6,,,,4pp4[4:1]/8,,,,8/4qq4[4:1],,,8h[16:5],,,,,,,5,6,
4/7h[16:3],,,1h[16:3],,,5,,2-6[8:1]/6-2[8:1],,,,26
,,,,
1<4[8:5]/5
,,5,,4,,4,,3,,3,,2,,2,,
24,,2,,26,,2,,28,,2,4,2,,25,,
1,8,2,5,4,6,2,4,3,7,5,6,1,4,3,8,5,6h,
1h,5h,3h,8h,4h,6h,
1b-5[8:1]/5b-1[8:1],,,,1bw5[8:1],,,,Cf/B1/B5
,,,,,,8,8,2-5[8:1],1,,1,2,,6,,
7-4[8:1],8,,8,7,,1-5[8:1]*-3[8:1],,1,,,,,,6,,
{8}7-4[8:1]/1,8,3-7[8:1]/7,2,3/5-1[8:1],6,53,4,
{32}8b/3bh,7,6,5,4,3,2,1,8,7,6,5,{8}4b/2b>4-7b[8:1],7b<5-2b[16:2],,,
{16}8<5[8:1],,
8,,,,2,2,4-7[8:1],,3,,4/2,,1-5-7[8:2],,8,,1/7-3[8:1],,,,,,8,8,2-5[8:1],,6v1[8:1],,2,,6,,
3-1[16:1],,,5<8[16:1]/3,,,5/8,1,2-5[16:1],,,8p4[16:1]/2,,,8/3,,
3-8[8:1],,,,3,,,,6b,1,8,3b,8w4b[8:1],1,6b,1,
8b,,,,,,6,6,3-8[8:1],4,,4,3,,5,,
6-1[8:1],4,,4,6,,4-1[8:1]*v7[8:1],,4,,,,,,2,,
{8}1-6[8:1]/7,8,1-4[8:1]/3,2,7/1-5[8:1],8,13,2,
{32}1b/6bh,2,3,4,5,6,7,8,1,2,3,4,{8}5b/6b<2[8:1],2bx<6[16:2],,,{16},,
{16}4h[16:3]/5x,,,3h[16:3],,,2h[8:1],,5<8[8:1],3,4,2,5,,4,,
2h[16:2]/1h[8:1],,,7h[16:2]/5h[8:1],,,42,,1>4[8:1],8,5,6,1,,7,,
8qq4[8:2],,,4,,,3,,2-6[8:1],,,,6<4[8:3],,,,
4,,,5,,,6,,
7h[8:1],,{24}5,6,4,{16}5,,2,1,
3qq8[8:2]/8,,,7,,,6,,5-2[8:1],,,,5/8<5[16:2],,,,8/1,,3,,
1,8,3,,17,,6,,2,8,1,8,2/7-4[16:1],,,7/3-8[16:1],,,3,,
{8}5pp7[8:1]*qq3[8:1],,5-1b[8:1],,5hb[8:5],
{16},A7f/E7/E8/B7,,,A3f/E3/E4/B3,,
,,,,1,8,2,7,
{16}1-5[8:1],,,,1/7-4[8:1],,,,7/3-7[8:1],,,,8-4b[16:1],,,,
8/2b-5b[16:1],,,6b-1b[16:1],,,3hb[8:2],,,,,,8,1,8,1,
7/2>5[8:1],,1,,2/8-4[8:1],,7,,8/2-5[8:1],,1,,82,,7,,
8h[8:1],,5,,5/6h[8:1],,5,,5/3,,5,7,5,,6/4,,
5,,3/4h[8:1],,3h[8:1],,2,,43,,4,1,4,,82,,
3,5,3bh[16:1],6,3bh[16:1],7,3,8,3bh[16:1],1,3
,1bh[16:1],3,1,3bh[16:1],,
6,4,6bh[16:1],3,6bh[16:1],2,6,1,6bh[16:1],8,6
,8bh[16:1],6,8,6bh[16:1],,
{24}3,5,3,6,4,6,3,5,2,6,4,7,3,8,3,8,3,8,2/1,,,8/7v4[4:5]*pp8-5[4:8],,,,,,
E
