&title=好きな惣菜発表ドラゴン
&artist=ンバヂ
&first=0
&des=好きな谱面発表xxlb
&lv_7=MMFC
&inote_5=
&inote_7=(160)
,,,,
E2,E3,E4,B7/B2f,
1>5[4:1],,1,1,
1>5[4:1],,1,
1pp4[4:3],,,,,
1>5[4:1],,1,1,
1>5[4:1],,1,1,
1>5[4:1],,1,
1pp5[4:3],,,,,8,1,{16}28,,1,1,1,1,1,1,
{16}1b,,28,,3/4h[8:1],,1,5,3,,28,,3,5,2,6,4b,,28,,5h[8:1]/4,,2,6,4,,17,,2b/6b,,,,
{8}3bv8[8:1]/7b-4[8:1],,37,,1-5[8:1]/6-1[8:1],,1V74[16:3]/6,,13,,2-6[8:1],1,8>3[8:1]*<5[8:1]/2,,8b,,
{16}8hb[8:1]/4b,,2,2,6h[8:1],,8-4[8:1],,4h[8:1],,8,,6h[8:1],,2,,
{16}8<5[8:1]/4>1[8:1],,,,8/4,,,,8h[8:1],,4,,2h[8:1]/6h[8:1],,,,
{16}8-4[8:1]/4,7,6,5,8/4,,,,7-3[8:1]/3,6,5,4,7/3,,,,
{16}6-2[8:1]/2,5,4,3,6<1[8:1]/2>5[8:1],,,,
2/6,,,,4b/8b,,,,
{64}1b/8b,E2/E8,B2,B7,B3,B6,E4,E6,,,,,,,,,{8}2b>5[8:1]/7b,,2/7q3[8:1],8,
{16}4-8[8:1]/7,,5,,6-1[8:1]/4,,7,,2-6[8:1]/6,,3,,2/8-4[8:1]*-5[8:1],,7,,
{16}8,,,,
3b-8[8:1]/6b,,4,,3/6p2[8:1],,5,,1>4[8:1]/6,,8,,
{16}7-1[8:1]/1,,6,,7/3<6[8:1],,4,,3/8,,7,,{24}7,6,7,6,7,6,
{16}8b-3[8:1],,,,8b/5b-8[8:1],,4,,
2-5[8:1]/5,,1,,2/7-2[8:1],,6,,
{16}4-7[8:1]/7,,3,,4/1-4[8:1],,8,,6-1[8:1]/1,,5,,6/3,,,,4b/8b,,,,
{16}5x,,5,4,3,,,,2h[8:1]/4h[8:1],,,,2h[8:1]/4h[8:1],,,,
5,,5,4,3,,,,2h[8:1]/4h[8:1],,,,2h[8:1]/4h[8:1],,,,
5,,5,4,3,,,,2h[8:1]/4h[8:1],,,,2h[8:1]/4h[8:1],,,,
5,,5,4,3,,,,3h[8:1]/4h[8:1],,,,3h[8:1]/4h[8:1],,,,
5,,5,4,3,,,,2h[8:1]/4h[8:1],,,,2h[8:1]/4h[8:1],,,,
5,,5,4,3,,,,2h[8:1]/4h[8:1],,,,2h[8:1]/4h[8:1],,,,
5,,5,4,3,,,,2h[8:1]/4h[8:1],,,,2h[8:1]/4h[8:1],,,,
7>6[16:5],,,,,,,,1,,,,8,,,,
{8}1b/8b,2,65,7,4/5<8[8:1],{24}2,3,4,{8}5b,4>1[8:1],1-5[8:1],4,7-3[8:1],6,78,,
2b/4b,,
{8}8b-6[8:1],,8-4[8:1]/4-2b[8:1],5,4-6[8:1]/8,,{8}8-2b[8:1]/4-8[8:1],1,8-6[8:1]/4,,8-4[8:1]/4-2b[8:1],5,48,,
2b/6b,,
{16}1b/2b-8[10:1],,4,5,2,,6,,7-3[10:1]/1,,6,4,7,,2,,
1/8,,7,,64,,3,5,1h[8:1],,4,2,5,3,6,4,
8bqq6[10:1]*pp2[10:1],,,,8,,,,1h[16:2],,6,2h[16:2],,7,3h[8:1],,8,
7,6,5,84,1,2,3,6>2[64:9]/4,75,,,8b,,,,
{16}7b/1bx^4[8:1],,,8,1,,7,,6/5<8[8:1],,,4,5,,3,,
{16}2/1^4[8:1],,,8,1,,7^4[8:1]*p1[16:4],,4^1[8:1],,7,,,,,,
{16}8b^5[8:1],,,1,8b,,2,,3/4>1[8:1],,,5,4,,6,,
{16}7/8^5[8:1],,,1,8^3[8:1],,4p8[8:1],,8v6[8:1],,,,,,,,
{16}7^2[8:1]/2,,,,7/3p7[8:1],,,,3/6-2[8:1],,,,4-1[8:1]*-7[8:1],,,,
{16}4,,,,2b^5[8:1],,7b^5[8:1],,5bpp7[8:1]*p1[8:1],,,,,,,,
{8}6<2b[16:3],,3>7[16:3],,6<2b[16:3],,3>7[16:3],,
{8}6<2b[16:3],,3>7[16:3],,6<2b[16:3],,3>7[16:3],,
{8}6<2b[16:3],,3>7[16:3],,6<2b[16:3],,3>7[16:3],,
{16}6,,,,3,,,,1-5b[8:1],8,1,,1b,,,,
{8},3,3,4,2h[4:1],,4,5,
5h[8:1]/3h[8:1],,4h[8:1]/2h[8:1],,3h[8:1]/1h[8:1],,8>5[4:3],8h[8:9],
,,,,,,,,,,,,1/2,,2/4,2/4,
{8},3,3,4,2h[4:1],,4,5,
5h[8:1]/3h[8:1],,4h[8:1]/2h[8:1],,3h[8:1]/1h[8:1],,8-5-1-4-2[4:4],8h[8:9],,,,,,,,,,,36,,{8}36,27,1>5[4:1]/8,,
1b/5p8[4:1],{16},8,{8}8>4p7[2:1],7,6,{16},7,{8}7>3p6[2:1],6,
5,{16},6,6,,5,,4p8[8:1]*q8[8:1],,,,4b,,,,
{16}7x/1bx,,8,8,1-5[8:1],,2,,7x/1-3[8:1],,8,8,1-7[8:1],,6-4[8:1],,
{16}1/7x,,6,,8x-4-7b[4:1],,{24}8x/5x,16,27,{16}3xV52[4:1]/8x,,,,,,,,
{16}8b,,7,,2h[8:1]/6,,5,5,1h[8:1],,6,,7-4[8:1]/3,,,,
{16}3-7[8:1],,2,,8-3[8:1],,1,,4-8[8:1],,5,,7-4[8:1],,6,,
{16}4V68[32:6],,,,1<4b[32:7],,,,3V57b[32:6],,,,1,,,,
{16}2h[8:1],,6h[8:1],,8h[8:1],,4h[8:1],,8x,1x/5x,2x/6x,3x/7x,4bx/8bx,,,,
(80){16}4b<7[32:3],3,2,1,8<5[32:3],1,2,3,
4<7[32:3],3,2,1,8-5[32:3],1,2-5[32:3],3,
8-3[32:3],,2-7[32:3],,8qq1[32:6],,,,,,,,
2h[16:1],4h[16:1],5h[16:1],7h[16:1],
3h[16:1],1h[16:1],8h[16:1],6h[16:1],
2>4[32:2],1q5[32:2],8p4[32:2],7<5[32:2],,,,,1hb[16:1],,3b/7b,,
(160){8}6V84[8:2]/3,,,{16}1x-3[8:1],1x,{8}1x-5[8:1],,,,
{32}2b/6b,3,4,5,6,7,8,1,
2,3,4,5,6,7,8,1,
2bx/6bx,5,4,3,2,1,8,7,
2/6,,,,,,,,
{8}3V15[8:2]/7,,,{16}8x-6[8:1],8x,{8}8x-4[8:1],,,,
{32}7b/3b,6,5,4,3,2,1,8,
7,6,5,4,3,2,1,8,
7bx/4bx,5,6,7,8,1,2,3,
4/6,,,,,,,,
{8}3/7-3[8:1],,,{16}2xV85[8:2],2x,{8}2hx[8:2],,,,
{32}3b/6b,4,5,6,7,8,1,2,
3,4,5,6,7,8,1,2,
6bx/3bx,5,4,3,2,1,8,7,
3/6,,,,,,,,
{8}1<6[8:2]/2,,6>3[8:2],,4,,1,1h[8:1],
{24}A5,A1,D6,D2,A6,A2,D7,D3,A7,A3,D8,D4,8bxw4b[8:1],,,,,,8b`Cf/B2/B7/B4/B5/E1/A2/A7,,,,
