&title=One Small Step
&artist=KOTOKO
&first=1.3
&des=艾瑞Airy
&lv_5=12+
&inote_2=
&inote_5=(160){4},,,,,,,,3h[8:1],
3h[8:1],3h[8:1],3h[8:1],
5h[8:1],5h[8:1],5h[8:1],5h[8:1],
4h[8:1],4h[8:1],4h[8:1],4h[8:1],
{8}6h[8:1],5-1V74[2:1],{4}6h[8:1],,,2h[8:1],
2h[8:1],2h[8:1],2h[8:1],
8h[8:1],8h[8:1],8h[8:1],8h[8:1],
1h[8:1],1h[8:1],1h[8:1],1h[8:1],
7h[8:1],7h[8:1],7h[8:1],{16}4,5,4,5,
{8}3b,2,4,5,{4}6-4[8:1],{8}3,2,
{4}1-5[8:1],8,1-5[8:1],2,
1>4[8:1],{8}6,7-4[8:1],,3,2,1-4[8:1],
,6,{4}7-5[8:1],{2}1-3[8:1],
{8}6,7,5,4,{4}3-5[8:1],{8}6,7,
{4}8-4[8:1],1,8-4[8:1],7,
8<5[8:1],{8}3,2-5[8:1],,6,7,8-5[8:1],
,3,{4}2-4[8:1],8h[4:1],{16}E7,E8,E1,E2,
{8}E3f,4-2[8:1],5,4/6,,5-7[8:1],4,3/5,
,1-5[8:1],8,1/7h[4:1],{16},,,,A3,A2,A1,A8,
{8}A7f,4-8[8:1],2,3/4,,5-1[8:1],7,5/6,
,8-4[16:1],1,8,,,,,{4}2h[4:1],
4h[8:3],{8},3,{4}3/4,
{8}6,6,{4}5h[8:3],{8},6,{4}5/6,
1>6[2:1],4,{8},7,{4}8,
{8}1>6b[2:1],1,{4}4,{8},7,{4}8,
3h[4:1],1h[8:3],{8},2,{4}1/2,
{8}7,7,{4}8h[8:3],{8},7,{4}7/8,
4<2[2:1],5,{8},6,{4}7,
{8}4<2b[2:1],4,{4}5,{8},6,{4}7,
7h[4:1],5h[8:3],{8},6,{4}6/5,
{8}3,3,{4}4h[8:3],{8},3,{4}4/3,
8-6-4-2[2:1],5,{8},1,{4}8,
{8}8-6-4-2b[2:1],8,{4}5,{8},1,{4}8,
6h[4:1],8h[8:3],{8},7,{4}8/7,
{8}2,2,{4}1h[8:3],{8},2,{4}2/1,
5-3-1-7[2:1],4,{8},3,{4}2,
{8}5-3-1-7b[2:1],5,,,,3,{4}2,
1x-5[8:1],E1/B1f/E2,{8}6-1[8:1],6,4,3-5[8:1],
,3/7>3-5[2:1],{4}6h[2:1],,,8x-4[8:1],
E1/B8f/E8,{8}3-8[8:1],3,5,6-4[8:1],
,6/2<6-4[2:1],{4}3h[2:1],{8},,,,2,
2,2,4,4,4,1,1,
7,7,7,5,5,5,4,4,
3/5,2,4/6,7,2/4,1,5/7,{16}8,1,
{4}8w4[4:1],{32},,,,,,,,,,,,,,,,5,6,7,8,1,2,3,4,
{4}5b/8b-4[8:1],{8}6,7,{2}8-4[8:1]/3-1[8:1],
{4}5/8-4[8:1],{8}6,7,{2}8-4[8:1]/3-1[8:1],
{4}5/8-4[8:1],{8}6,7,{2}3-1[8:1]/8-4[8:1],
{4}5h[4:1]/8-4-2[4:1],8,{8}7,8,1,2,
{4}7-2[8:1],3-8[8:1],7-4[8:1],1,
2-7b[8:1],6-1b[8:1],2-5b[8:1],8,
{8}7-4[8:1],7,3-8[8:1],3,7-2[8:1],7,{4}1,
{2}8-4[8:1],1-3[8:1]/7-5[8:1],
{4}4b,{8}5-1[8:1],6,4-8[8:1],3,7-3[8:1],6,
{4}4pp6[32:5]*qq2[32:5],4,5qq4[16:3]*pp6[16:3],5,
{8},,5-1[8:1],6,4-8[8:1],3,{4}7-4[8:1],
3<6p2[8:3],{8}6,7p4[8:3],,,,,2-5[8:1],
1,2,8,7-4b[8:1],8,7,1,
{4}7,{8}1,5,{16}3,4,3,4,{4}3-7[8:1],
{8}3b/5b,,,5/6,4/7,5/6,,3/4,
2/5,3/4,,4/5,3/6,4/5,{4}2/7,
{8}4b,3,4,5,{4}6-4[8:1],{8}3,2,
{4}1-5[8:1],8,1-5[8:1],2,
1>4[8:1],{8}6,7-4[8:1],,3,2,1-4[8:1],
,6,{4}7-5[8:1],{2}1-3[8:1],
{8}6,7,5,4,{4}3-5[8:1],{8}6,7,
{4}8-4[8:1],1,8-4[8:1],7,
8<5[8:1],{8}3,2-5[8:1],,6,7,8-5[8:1],
,3,{4}2-4[8:1],8h[4:1],{16}A6,A7,A8,A1,
{8}A2f,4-2[8:1],5,4/6,,5-7[8:1],4,3/5,
,1-5[8:1],8,1/7h[4:1],{16},,,,A3,A2,A1,A8,
{8}A7f,4-8[8:1],2,3/4,,5-1[8:1],7,5/6,
,8-4[16:1],1,8,{32},,,,,,,,,,,,,,,,3x,
2x,{16}1xqq1[16:59]*q1[16:59],
E
&inote_6=
