&title=Future Flux
&artist=Srav3R
&first=0.074
&des_1=綾ヘルツ
&des_2=綾ヘルツ
&des_3=綾ヘルツ
&des_4=綾ヘルツ
&des_5=綾ヘルツ
&lv_5=14
&des_6=綾ヘルツ
&des_7=綾ヘルツ
&des=綾ヘルツ
&inote_5=(185)
{4},,,,
{16}E6,E5,E4,,,,
{8}6h[8:3],,,5,,7/4h[8:8],,
{4},,,
{16}E4,E5,E6,,,,
{8}4h[8:3],,,5,,
{8}6h[8:2]/3,3,3,,72,,,,
{16}E8,E7,E6,,,,
{8}3h[8:3],,,4,,2/5h[8:8],,
{4},,,
{16}E2,E3,E4,,,,
{8}6h[8:3],,,5,,
{8}7h[8:2]/4,4,4,,63,,2,4,1-5[8:1],,
{8}8-6[8:1]/1,,
{8}2-4[8:1]/8,,
{8}8-4[8:1]/2,,
{8}8/1-3[8:1],,
{8}1/7-5[8:1],,
{8}7/1,,1,24,24,,
{8}1-5[8:1]/5,,1/8-4[8:1],,8/3,,
{8}5/2,2-5[8:1]/5-8[8:1],,52,,74,
{8}7/4qq5[8:4],,4,,,,8,,7pp4[8:4],,
{8}7,3,,3,1-5[8:1],,1,,
{8}8,65,18,43,
{16}2,3,4,5,8,7,6,5,
{16}1,,,24,,,75,,,81,,,
{32}7x/2x,3x,4x,5x,6x,7x,
{32}8x,1x,2x-4-8[8:2],,,,
{8},8-6-2[8:2],,5h[8:2],,,5,
{8}7x-5-1[8:2],,1-3-7[8:2],,
{8}4h[8:2],,,
{8}4,6/5>2[8:1],,8/5,,
{8}8-4[8:1],3-1[8:1],8,3,
{8}5h[8:3],,1,2,3,
{8},25,25,3>6[8:2],,
{8}6<3[8:2],,5h[8:2],,,5,
{8}6x-8>1-3[8:2],,3>6[8:2],,
{8}4h[8:2],,,4,5h[8:2]/2h[8:2],,,
{8}5,64,8,71,62,
{24}7,6,5,,,,
{8}8/1,81,
{24}2<4[8:2],3,4,,,,
{8},,
{8}1,1,1-5[8:1],,1/6,,74,
{8}6,2-6[8:1]/5,,8-4[8:1]/2,,
{8}8,,1/5pp4[8:3],5,2,,2,,1,
{8}2,4,34,25,,8,
{16}7x/4x,6x/3x,5bx/2bx,,,
{16}6b/3b,,,7b/4b,,
{8}8b-4-2[8:2]/1b,,2-6-8[8:2],,
{8}1h[8:2],,,2x,1x-5-7[8:2]/5,,
{8}7-3-1[8:2],,8h[8:2],,,7x,
{16}1/5,2,3,4,
{16}8,7,6,5,
{16}1,2,3,4,
{24}7x,6x,5x,
{24}2x,3x,4x,8x>7[8:4],,,,,,
{8},,1,,3,,
{24}7/4,6/3,5/2,1h[8:1],,,,,,
{24}2/5,3/6,4/7,8h[8:1],,,,,,
{24}7/4,6/3,5/2,1h[8:1],,,,,,
{24}2/5,3/6,4/7,8h[8:1],,,,,,
{24}7/1,6,5,,,,
{16}3,4,3,,
{16}81,,,72,,,
{24}2,3,4h[24:7],,,,,,,
{16}6,,,74,,,81,,,24,,,
{8}75,8,
{16}3,4,3,4,
{24}1,2,3,4h[8:1],,,,,,
{24}{24}7/4,6/3,5/2,1h[8:1],,,,,,
{24}2/5,3/6,4/7,8h[8:1],,,,,,
{24}7,6,5,,,,
{16}34,,81,,75,,,3,4,,
{8}2>4[8:1]/5,2,
{8}2/7<5[8:1],8,7/1-5[8:1],2,
{8}1/8-4[8:1],7,8/2,1h[8:2],,
{8}6,
{12}3,4,2,6,5,7,
{8}1,,,C,,24,,81,,75,,
{16}6,5,6,,
{8}7h[8:2]/4h[8:2],,,
{8}6h[8:1]/5h[8:1],,
{8}6h[8:1]/5h[8:1],,,
{16}72,,4,5,4h[8:2],,,,E7,,C,,E3,,,,
{16}2,,4,,3,,2h[8:3]/5h[8:3],,,,,,,,
{8}25,6,6,
{16}5h[16:8],,7,,,7,,,7,,83,,
{16}2-6[8:1],,6,,2,,8h[8:2],,
{16}7,6,5,,1h[8:2],,2,3,4,,
{24}7,6,5,1,,,
{16}8,7,6,5,1,2,3,4,
{24}7,6,5,2,3,4,
{32}7,6,5,2,3,4,,,
{16}7<4[8:1],,3,,7/1,,1,,
{16}2-6[8:1],,4,,2/8,,8,,
{8}7-2[8:1],2-5[8:1],7,1,
{8}3-6-1[8:2],3,6,8,,
{8}2-7[8:1],7-4[8:1],2,5,6-1-4[8:2],6,3,,
{8}1x,4x<6b[8:1],2x>4b[8:1],
{8}4x,2x,A8f,,
{16}2>5[8:1],,6,,2/8,,8,,
{16}7-3[8:1],,5,,7/1,,1,,
{8}2>4[8:1],5<7[8:1],2,5,1-5[8:1],,1,
{16}8x,7x,6x,,4,,6,5,6,,74,,3,4,3,,
{8}2h[8:1]/5h[8:1],,2h[8:1]/5h[8:1],,
{8}43,81,65,Ch[8:2],,
{32}7,6,5,,
{8},1/8,,
{32}2,3,4,,
{8},18,,
{16}6,5,6,5,7,5,
{16}6,5,8,5,6,5,
{8}7<5[8:1],,7,3,
{8}4-7[8:1],3,2,1,
{8}2>4[8:1],6,2<8[8:1],
{8}6,2-6[8:1],6,7<4[8:1]*>2[8:1]/2,
{8},A7,,
{8}3,3,24,
{16}6,5,6,,
{8}1,2-4[8:1]/4-8[8:1],,2x/4x,,
{8}7x-5[8:1]/5x-1[8:1],,7x/5x,,24,,
{16}1/5,26,37,48,
{16}1,2,3,4,
{16}1,2,3,4,
{16}8,7,6,5,
{8}1-5[8:1],,1/6,6,
{8}7-4[8:1]/3v8[8:1],,7b/3b,,
{4}E6h[4:14]f,,,,
{4}B6h[4:10]f,,C,,
{4}E2h[4:6]f,,,,
{4}B2h[4:2]f,,,
{12}7x,3x,5x,
{8}1x,,6-8[8:1]/2-4[8:1],,
{4}2xb/6xb,,7,
{4}8<5[8:1]/4>1[8:1],8xb/4xb,,
{8}2,,3<6[8:2],7,3,,
{8}7p2[8:2],7,2,,1,,
{12}2x,6x,4x,
{8}8x,
{16}7b/4b,,
{8}8b-4-2[8:2]/1b,,2-6-8[8:2],,
{8}1h[8:2],,,2x,1x-5-7[8:2]/5,,
{8}7-3-1[8:2],,8h[8:2],,,7x,
{8}61,,
{32}1/7,6,5,,
{8},3,24,15,86,7-3[8:1],,7,
{16}2x,2x,4x,,,75,,,81,,
{24}7/2,3,4,
{8},
{24}1/7,6,5,
{8},2/8,4,71,5,
{24}1bx/2bx,3x,4x,
{8},
{24}8bx/7bx,6x,5x,
{8},2/8,4,7/1-5[8:1],5,1,,
{8}8,,1/5pp4[8:3],5,2,,2,,1,
{8}2,4-8[8:1]/3,,1,1,2-4[8:1],
{8}2,8-4[8:1],8,1-5[8:1],1,
{8}7-5[8:1],7,3-1[8:1],3,
{8}4-8[8:1],4,1,1,
{16}7,6,5,,
{16}2xh[16:3]/4xh[16:3],,,,,,
{16}2b/4b,,
{16}7xh[16:3]/5xh[16:3],,,,,,
{16}7b/5b,,
{16}8b,7,6,5,
{16}1b,2,3,4,
{16}8b,7,6,5,
{32}1b,2x,3x,
{32}4x,5x,6x,
{32}7x,8x,1x/5h[8:2],,,,
{8},3,,54,
{16}7,8,7<5[8:1],,8,,
{16}7/1-5[8:1],,,,
{16}1/8,,7,,74,,
{16}2,1,2>4[8:1],,1,,
{16}2/8-4[8:1],,,,
{16}8/2,,,,25,,
{16}6,5,6,,74,,8-2[8:1],,
{16}4,4,8-6[8:1],,
{16}4,4,8-4[8:1],,
{16}3,3,8,,1x,2x,3x,,,,
{16}8/3,4,5,,
{16}1/7,6,5,,8-4[8:1],,
{16}4-8[8:1],,8,,,,2,,2,,16,,
{16}3,4,3,,25,,
{16}2-5[8:1]/5-8[8:1],,,,
{16}2x/5x,,,,7/4,,65,,2,,43,,
{16}8<5[8:1],,1>4[8:1],,8,,1,
{16},8h[8:2],,,,1,2,3,4,
{16}7-3[8:1],,,,7/1-5[8:1],,,,1,,,,
{8}6,5,7/4>2[8:1],,4,
{16}8,7,6,,1,,1-5[8:1],,5,,
{16}1/7<4[8:1],,8,,
{16}7,,3,,2<7[8:1],,6,,2,,6,,
{16}6,5,6,,74,,3,4,3,,
{16}2,,71,,4,,
{16}8/2x,3x,4x,,
{16}1/7x,6x,5x,,
{8}8/2,8/2,1-5[8:1],6,1,
{8}7-4[8:1],7,3-8[8:1],3,
{16}5,,5,,2/6,7/3,4/8,,,,
{8}6/5,8,12,3,
{16}5,4,5,4,5,4,5,4,
{24}7,6,5,2,3,4,8h[8:1],,,,,,
{16}1x-5[8:1],7x,3x,5x,1b,,
E
