&title=Narsissu Inst
&artist=Ebi
&first=0
&des=|ナルキッソス|
&clock_count=4
&lv_5=13+
&inote_5=(80)
{1},
{4}6h[8:1]/3,2h[8:1],3/7h[8:1],4,2h[8:1]/5,6,4/7h[8:1],3,
{8}4/6,4/6,3,5,2,5,3,
{16}7,7,
{8}6h[8:1]/4h[8:1],,3qq2[4:1]/5pp6[4:1],2,,,,
{16}5,,3/4,,2,2,5,,4/6,,3h[4:1]/7h[4:1],,,,,,
{16}4,,5/6,,7qq6[16:5],7,
{8}4,,2h,,8h,7,6/1pp3[8:1],,,7,8/3,7/2,7/2,1,6pp8[8:1]/1,,,3,4qq2[8:1]/7,,,,
{16}8/2,,3,3,,,6,6,,,
{8}4/5,3pp4[16:3],2,8pp2[8:1]/3,
{16}7,7,
{4},
{24}6,4,5,
{16}3,2/4,
{16},,1,2,3qq1[8:1]/5,,6h,,8h,,7,6,5qq3[8:1]/1,,3h,,4h,,5,5,
{8}4qq3[32:5]/6,7h,7h,8h,8h,1,2/8,1,1/7,8pp2[32:5],6qq5[16:3],,,,
{8}2/4,3,4/5,6pp8[32:5],2pp3[16:3],6,,7,6,5,
{16}1/4,2qq1[16:9],3pp4[8:4],,,,,,,,,,,,,,
{4}2h[8:5]/3h[8:5],,,
{16}1,1,4,4,
{8}2/5,7,3qq1[8:1],2/5,3/7,
{16}6,5,
{8}2/4pp6[8:1],3,4/7pp1[8:1],8,7/4qq3[16:3],3,4/6,7,8qq6[8:1],1/6,
{8}2/8,3,5qq3[8:1],4/6,5/7,8,2,
{16}1,8,
{8}1pp3[8:1]/7,3,1qq8[32:5]/6,7,1/2,,
{16}3,4,5,6,
{8}3/7,2pp4[8:1],8qq6[8:1]/1,2/6,8pp2[8:1],
{16}1,1,
{8}8/7qq5[8:1],4,7/3qq1[8:1],2,3/4pp5[16:3],7,2/4,8,1qq7[8:1],2/7,
{8}1/5,4,8pp2[8:1],2pp4[8:1]/6,3/8,1,8,1/5,
{4}8h[4:3]/4,5,6,
{16}7,1,2,3,
{8}4/8,2qq8[8:1],5qq3[8:1],2/4,5,
{16}1,2,
{8}4pp6[8:1]/8,6pp8[8:1],4qq2[8:1]/3,1,4pp5[16:3]*pp6[64:9],7,4,,,
{8}5/6,2/4,3,7qq5[8:1],3qq1[8:1]/5,7/2,3,6,
{16}7,8,1/5,,3,,
{12}2pp3[32:5]/6pp7[32:5],3/7,3/7,
{4}2/6,
{16}2/6,1,5,3,
{8}7/4,2,5qq3[8:1],3qq2[32:5]/4,1/5,
{16}4,4,
{8}5pp7[8:1],3/7,2pp4[8:1]/5,3,2qq1[32:6]*qq8[64:9],1,2,,,
{8}6,5/7,4,4pp5[32:5],7,6/4,8,1/5qq4[2:1],8,
{4}1h/5,1h,1h,1qq8[2:1]/4h,1/5h,5h,5h,5pp6[2:1]/8h,
{8}1/5,8,1,2,3,7,6pp7[2:1],5,4/6,3,2,3,2,6,7pp8[80#1.4],8,
(71)
{8}1/7,2,
(73)
{8}3pp4[73#1.72],4,
(64)
{8}3,
(56)
{8}2,
(42.5)
{8}1,8,
{96}7bqq5[60#2.2],6,5pp7[68#3.2],
