&title=X-TREME 6
&artist=REDALiCE; DJ Noriken; 源屋; PHQUASE PHRASE; DJ Genki; DJ TOTTO
&first=-0.298
&des=Micavro
&lv_5=14+
&inote_4=(200)
{1},,,,,,,,,,,,,,,,,,,,,,,,,,,,,,,,,,,
{16},,,,
1,,,,1,,,1,,,1,,,,1,,1,,,,1,,,1,,,1,,2x,,,,1,,,,1,,,1,,,1,,2x,,1,,1,,,,1,,,1,,,1,,2x,,,,
1,,2x,,2x,,,1,,,1,,2x,,1,,1,,2x,,2x,,,1,,,1,,,,,,1,,2x,,2x,,,1,,,1,,,,1,,1,,,,,,,1,,,1,,,,,,
1,,,,,,,1,,,1,,,,1,,1,,,,,,,1,,,1,,,,,,1,,,,,,,1,,,1,,,,1,,1,,,,,,,1,,,1,,,,,,
&inote_5=(200)
{1},
{16},,,,
8-5[8:1],1,8,1,8bz4[8:7],,,,,,3h[16:1],,3h[16:1],,2,,,,1,,1-5qq5[8:3],,,,1,,,,,,,,
8-6[8:1],1,8,1,8bv1-3[8:7],,,,,,3h[16:1],,3h[16:1],,4,,,,5,,5-8v1-4[8:3],,,,5,,,,,,,,
8v2[8:1],2,8,2,8b-6-2b[8:7],,,,,,1x,2x,3x,4x,5x,,,,3,,3z7[8:3],,,,3,,,,,,,,
8-5[8:1],2,8,2,8b-5q2b[8:7],,,,,,1x,2x,3x,4x,5x,,,,4,,4s8[8:3],,,,4,,,,,,,,
3,4,3,4,3h[8:1],,6,5,6,5,6h[8:1],,2,1,2,1,2h[8:1],,7,8,7,8,7h[8:1],,1-5[8:1]b,,,,1b/8,,,,
3,4,3,2,3h[8:1],,6,5,6,7,6h[8:1],,2,1,2,3,2h[8:1],,7,8,7,6,7h[8:1],,1-5[8:1]b,,,,1b/2,,,,
8/4,,,,8/4,,,,3/7,,,,3/7,,,,6/2,,,,1/5,,1/5,,8/4,,8/4,,7/3,8/4,1/5,2/6,
{12}3b/7b,,5b/C,,1b/Cf,,8b/4b,,6b/E4,,2b/E8f,,
{16}1h[8:3]/5,,,,5xw1[100#16:1],6x,7x,8x,1x,2x,3x,4x,5bx,,,,
3bh[8:1]/6h[8:1],,,,2/8,,1/7,,4h[8:1]/5bh[8:1],,,,1/6,,3/8,,4/5b,,2,4,2h[8:1],,8h[8:1],,2-8[8:1],,5h[8:1],,2,,,,
7-5[8:1],5,7,5,7-4[8:1],,4,,7-3[8:1],,3,,7,,1,,2-4[8:1],4,2,4,2-5[8:1],,5,,2-6[8:1],,6-4[12:1],,,,,,
8-3[8:1],3,8,3,8-4[8:1],,4,,8-5[8:1],,5,,8,,2,,1-6[8:1],6,1,6,1-5[8:1],,5,,1-6[8:1]*-4[8:1],,4,,,,,,
2b/5,,3/6b,,4b-2[8:1]/7,,8-6[8:1],,4v1[8:1],,8v5[8:1],,4,,8,,4,6,3-7[8:1],5,2,,1/3,,1w5[8:1],8,2,,1,,,,
2b/8,,4,5,3,,1/7,,3/8b,,6,5,7,,1/6,,8b-4[8:1],,3b-7[8:1],,8b-6-4-2-8[8:3]b,,3b,,8b,,,,Cf,,,,
3>7V13[8:3],,,,3/6,,5,,4-8[8:1],,,,4/5,,,,1-5[8:1]/7,,2,,3/1,,4,,6-2[8:1],,4-8[8:1],,6,,4,,
6V82<6[8:3],,6,,6/3,,4,,5-1[8:1],,,,5/4,,,,8-3[8:1]/2,,7,,6/8,,5,,4v7[8:1],,4v1[8:1],,,,,,
8b,,8,,8/6b,,6,,6/4b,,4,,4/2b,,2,8,2b,,2,,2/4b,,4,,4/6b,,6,,6/8b,,5,7,4b,,B6/E7,,E3/B3,,4,1,5b,,B2/E3/B3,,E8/B8/B7,,3,5,1b,,6,4,8b,,2,8,1bw5b[8:1],1,1,1,1,,,,
2/3,,,,3/2,,,3/2,,,2/3,,B5/B4/E5,,E1/B1/B8,,6/7,,,,6/7,,,6/7,,,6/7,,B3/B4/E4/B2/E3,,,,
5/7,,,,5/7,,,5/7,,,5/7,,E1/B1/B8,,E6/B6/B5,,2/4,,,,2/4,,,2/4,,,2/4,,E7/B7/B6,,B2/E3/B3,,
5h[8:1]/6h[8:1],,,,1h[8:1]/5h[8:1],,,6h[8:1]/5h[8:1],,,5/1,,B8/B7/E8,,E4/B4/B3,,1h[8:1]/2h[8:1],,,,1h[8:1]/5h[8:1],,,1h[8:1]/2h[8:1],,,1/5,,B6/B7/E7/E8/E6,,,,
6h[8:1]/8h[8:1],,,,3h[8:1]/8h[8:1],,,6h[8:1]/8h[8:1],,,8/3,,E2/B2/B1,,E7/B7/B6,,
3,,2h[16:3]/4,,{32}7b,6,5,4,3,2,1,8,{16}7/4,,1/5,,3b/6,,,,
1h[8:1]/4h[8:1],,,2h[8:1]/5h[8:1],,,3h[8:1]/6h[8:1],,,4h[8:1]/7h[8:1],,,5/8qq6>4qq2<8[8:5],,5h[4:3]/8,,,,,,,,,,,,,,7,,7,,
8h[8:1]/5h[8:1],,,7h[8:1]/4h[8:1],,,6h[8:1]/3h[8:1],,,5h[8:1]/2h[8:1],,,4/1q5<7p3>1[8:5],,4h[4:3]/1,,,,,,,,,,,,,,2,,2,,
2h[8:1]/5h[8:1],,,4h[8:1]/7h[8:1],,,1h[8:1]/6h[8:1],,,3h[8:1]/8h[8:1],,,1/4,,1/4,,
7h[8:1]/2h[8:1],,,1h[8:1]/4h[8:1],,,6h[8:1]/3h[8:1],,,8h[8:1]/5h[8:1],,,6/1,,6/1,,
4h[8:1]/8h[16:1],,,2h[16:1]/6h[8:1],,,1/5,,3,4,2/5,,6,5,4/7,,1bpp4[2:1]/8qq5[2:1],,,,,,,,,,,,,,,,
{8}8/1bv6[8:1],2,3,4bv1[8:1],5,6,7bv4[8:1],8,1,2bv7[8:1],3,4,5bv2[8:1],5bv8[8:1],,,
4bv6[8:1],3,2,1bv3[8:1],8,7,6bv8[8:1],5,4,3bv5[8:1],2,1,8bv2[8:1],8bv6[8:1],,,
{16}1,,1,2,3h[8:1]/7,,7,,7,6,5h[8:1]/2,,2,,2,3,4h[8:1]/8,,8,,8,7,6/2-5[8:1],,8-4[8:1],,2,,8,,,,
3/5,,3,4,5h[4:1],,B2/E2,,3,,B7/E8f,,6/4,,6,5,4h[4:1],,B7/E7,,8,,B3/E3f,,,,,,
3,6,2,7,1/8,,1,2,3h[4:1],,1-5[8:1],,7-4[8:1],,1,,7,,3,2,1h[4:1],,4-8[8:1],,6-1[8:1],,4,,6,,,,2,3,4,5,6h[8:1],,,,3/6,4/7,5h[8:1]/8h[8:1],,,,3/7,4/8,5b>2[8:1]b/1,,,6bh[8:1],,,7bh[8:1],,8,,1-5[8:1],,2-4[8:1],,1,,2,,8x,,8x,,
5bx,1,5,1,4,8,4,8,3,7,3,7,2,6,2,6,1,5,1,5,8x,4x,1,2,3,4,5/1,2,3,4,5h[8:1]/
1b-7[8:1],,,,2b-6[8:1]b,,,,3b-5[8:1],,3b,,,,6b-8[8:1],,1b,,,,1b,,3b,,5bw1[8:1]b,,,,5b,,,,
4,5,4,,6,5,6,,4,5,3,,6,5,7,,4,5,2,,6,5,8,,4,5,1,,5b/Cf,,,,
3,4,2,,5,4,6,,3,5,1,,5,3,7,,3,6,1,,5,2,8,,4v7[8:1]b*v2[8:1]b,4,4,,Cf,,,,
6,1,8,,4,1,2,,7,1,8,,3,1,2,,8,1,8,,2,1,2,,1-4[8:1],8,7,6,5/1b,,,,
3,4,3,4,2h[8:1]/5h[8:1],,,,6,4,5,4,3v8[8:1]/7h[8:1],,,,3bqq5b[2:1]*v8pp5b[2:1],,,,,,,,,,,,
A5f/D5/D6,,2,3,
4/8-4[8:1],,4,,3/8<5b[8:1],,3,,8v3[8:1]/2,,2,,1/8,,1,,1/5,2,3,4,5/1,6,7,8,1/5-2[8:1],6,7,8,1/5b,,1,,
8/4>1[8:1],,8,,7/4-8[8:1]b,,7,,6/4v7[8:1],,6,,5/4,,5,,5/1,4,3,2,1/5,8,7,6,{32}5/1v6[8:1]*v4[8:1],2,3,4,5,6,7,8,{16}1b/Cf,,,,
5/3v8[8:1],,5,,6/3>8[8:1]b,,6,,7/3<6[8:1]b,,7,,8x/3,,8x,,7/3,8,1,2,3/7,4,5,6,7-3[8:1]/3-7[8:1],8/4,1/5,2/6,3b/7b,,,,
4,4,5,1h[8:1],,,2/7,,6,6,5,8h[8:1],,,2/8,,1b/B5f,,2b/B6f/E6,,3b/B7f/A7/E7,,4b/B8f/E8/A8/D8,,5b/B1f/E1/E2/A1/D1,,,,
B3/B4/E4,,B7/B8/E8,,1bx,5,1,5,2,6,2,6,3,7,3,7,4,8,4,8,3,6,3,6,2,7,2,7,1,5,1,5,
2-5-2[8:2],,2,,1,,8,,7-4-7[8:2],,7,,8,,1,,2x,,3-8-3[8:2]b,,3,,4,,5,,6-1-6[8:2]b,,6,,5,,4,,3x,,
5bx,1,5,1,6,2,6,2,7,3,7,3,8,4,8,4,7,1,7,1,6,2,6,2,5,3,5,3,4>1[8:1],,5,,6/4,,7x,,8>3[8:1],,7,,8/6-1[8:1],,5-2-7-4[8:3]b,,6,,5b,,,,,,
6x-2[8:1]*v1[8:1],,,,6x,,,,
B4/B3/E4,,B8/B7/E8,,2bx,6,2,6,3,7,3,7,4,8,4,8,3,7,3,7,2,5,3,6,4,7,2,6,3,7,4,8,
3v8[8:1],,3,,4,,5<8[8:1],,,,5>2[8:1]/4,,,,5/6,,,,
7<4[8:1],,8,,1v4b[8:1],,1,,1v6b[8:1]/8,,,,1/2,,,,
,,4,8,3,7,2,6,1,5,3,8,2,7,1,6,2,8,1,7,,,6/C,,,,3/C,,,,8/C,,,,3b/1-4[8:1],,3,,3/1b-5[8:1]b,,3,,3b/1-6[8:1],,3,,3/1b,,3,,
{32}3/E1,4,5,,,,,,7/E4,6,5,,,,,,1/B5,2,3,,,,,,7/B3,6,5,,,,,,
{16}1b,2,3/7,6,5/1,2,3/7,6,5/2,3,4/8,7,6/1,2,3/8,7,6/2,3,4/7,6,5/1,2,3/7,6,5/2,3,4/8,7,6/1,2,3/1,8-5qq5[32:45],7b>7b[5:9],
