&title=光景
&artist=初星学園,篠澤 広
&first=8.02
&des=千夏seliery×Tail_R
&lv_1=
&des_1=
&inote_1=
&lv_5=14
&des_5=
&inote_5=(127)
{8}
E5,,E3,,E4,,E6,,
{16}4,,,5/3<8[8:3],,,2,,Ch[4:1],,,,,,,8,
2,,,1qq5[8:3]/3,,,4,,Ch[4:1],,,,,,,,
8b/1h[16:9],,,2b,,,6b,,,4b-8[16:1],,,2b,,,,
7h[16:9]/5b,,,1b,,,3b,,,6b<3[32:7],,,8b,,,,
7h[16:12],,,,,,,,,,,,5,,5h[16:5],,
,,,6q2[16:3],,,1h[8:3],,,,,,3<1[8:6],,2h[8:5],,
,,,,,,,,,,,,3,,3h[8:4],,
,,,,2,,2h[8:4],,,,,,1V35[8:4],,1,,3-5[4:1]
,,,,5V71[4:2],,,,7-1[4:1],,,,1-5[2:1],,,,
,,,,,,,,,,7h[16:3],,,5h[16:3],,,4>7[1:1],,,,,,,,,,,,,,,,
,,,,2h[4:1],,,,4h[4:1],,,,5<3[16:10],,,,
7h[16:12],,,,,,,,,,,,4^7[16:3],,3h[4:1],,
,,,,1p5[16:3],,2h[4:1],,,,,,4V68[2:1],,3V15[2:1],,
,,,,,,,,,,,,8h[4:1],,,,5>1[4:1],,,,1<5[4:1],,,,5-1[8:1],,,,7p2[16:12],,6q3[16:10],,
,,,,,,,,,,,,,,,,5h[4:1],,,,6h[4:1],,,,7>3[16:6],,,,8h[2:1],,,,
,,,,4,,2/5h[8:3],,,,,,3,,2h[8:1],,
8x,7,6,5,4,3,2,1,8x,7,6,5,4,3,2pp4[12:17],,
1x<4[16:20],,,,,,,,,,,,,,,,
,,,,,,,,,,,,,,,3qq8[12:17],,
4q7[16:20],,,,,,,,,,,,,,,
,,,,,,,,,,,,1<2[16:14],,,,
,,,,5hx[16:12],,,,,,,,,,,,
1h[1:2],,,,,,,,,,,,,,,,
8-2[8:1],,,,,,,,8-3[8:1],,,,,,,,
8-4[5:1]*<1[3:1],,,,,,,,,,,,,,,,
28,,,3/4-8[8:1],,,2^5[8:1],,1qq5[16:7],,,,1x,,,5<2[16:5],5,,,4,,,4,,4-6[12:1],,3,,2v4[8:1],,,7,
7,,,6-3[8:1],,,1^4[8:1],,8pp6[16:8],,,,8x,,,6,
6>2[32:8],,,,2,,,,1b-6[8:1]*-5[8:1],,,,1b,,,,
3,3,,24,4/2^7[8:1],,,,7b^2[8:1],,,,7b/2b,,,,
3,3,,24,2-5[8:1]/4-7[8:1],,,,2b/4b,,,,8/1b>6[3:1],,,,
6,6,,7,,,7,,8w4[8:1],,,,8,,,,
2^5[8:1],,,,7^2[8:1],,,,5<4[4:1],,,,4x/5x,,,,
1bx,,,6/5-1[8:1],,,7^4[8:1],,8pp3[16:7],,,,8x,,,3>6[64:18],
3,,,4,,,5,,5-3[12:1],,6,,7v5[8:1],,,2,
2,,,3-6[8:1],,,8^5[8:1],,1qq3[16:7],,,,1x,,,3<6[64:10],
3,,,,7-3[8:1],,,,7b/8-4[8:1],,,,1/8b,,,,
3,4,,2,3v8[8:1],,,,{48}1xb,2x-7[8:1],3x-6[8:1],4x,,,,,,,,,{16}2b/3b,,,,
7,5,,8,6v1[8:1],,,,{48}8xb,7x-2[8:1],6x-3[9:1],5x,,,,,,,,,{16}7b/6b,,,,
14,,14,,14,,2,2,1-4[8:1],,,,,,,,
85,,85,,85,,1x/8x,2x/7x,3hx[4:1]/6hx[4:1],,,,,,,
,{20}1b,2,3,4,7b,8,1,2,3,4,{16}5x,1x,7x,2,4,3,8,5,
{16}7b,1h[8:1]/6b,,,8,1,8,2h[384:1]/7h[384:1],,{32}1b,2,3h[16:1],,7b,6,5h[16:1],,1,,2b/8b,,,,
{16}4b/5b,,1/2,3b/8b,,5/6,4b/7b,,{32}4b/5b,3,2,1,8,7,6,5,4,3,2,1,8,7,6,5,
{32}8b/4,1,2,3,4,5,6,7,8x/1x,2,3,4,5,6,7,8,{48}1b,,,,2xb/8xb,,,,2b/8b,,,,2h[8:1]/8h[8:1],,,,,,,,37,,,,
{24}6b,5,6,5,6,5,7x,8,1,8x,7,6,3b,4,3,4,3,4,2x,1,8,5x,6,7
,
{24}1b,4,3,4,3,4,2b,5,4,5,4,5,3b,6,5,6,5,6,1b,7,5,7,5,7,
{4}2bz6[1:1],8,1b,2b,
{4}3b,4,{32}1b,2,3,4,5h[8:1],,,,8b,7,6,5,4h[8:1],,,,
{8}1b-5[4:5],,,,,,,,
,,,6>2[16:14],7h[8:6],,,,
,,,8<4[16:6],,,4>8[4:1],,
8^6[16:2],,4-1[8:1],,4b/6b-2[8:1],,5b/6b,,
{24}3,,4,,5,,6-2[8:1],,,,,,7bx-3[8:1]/6bx,,,,,,7b/8b,,,,,,
2,,1,,8,,{16}7h[4:1],,,,5<8[8:1],,,,1h[4:3],,,,8-5[16:10],
,,,,,,,,,,,,,,,1-4[4:2],,,,E6,,,,E7,,,,E8,,,,
{16}3^8[16:1]/8,,,3/6pp7[16:3],,,7<3[16:3]/6x,,8hx[8:1],,,,1,,2,,
1^6[16:1]/3,,,1/4pp5[16:3],,,4x/5>1[16:3],,6hx[8:1],,,,7,,7,8,
6^4[16:1]/1,,,6/2pp3[16:3],,,2x/3>7[16:3],,4hx[8:1],,,,5,,6h[8:1],,
5^2[16:1],,,5/8pp1[16:3],,,8x/1<5[16:3],,2bxpp7[4:1],,,,2b,,,,
5b,6x-8[16:1],,5h[16:3],6x,,,,6b-3[8:1]/7b-2[8:1],,,,6b/7b,,,,
3b,2x-4[16:1],,1h[16:3],2x,,,,3b-6[8:1]/2b-7[8:1],,,,3b/2b,,,,
5x,6h[8:1],,4x,5x<2[16:4],,,,4,4,,3,,,24,,
3x,4h[8:1],,2x,1,,{32}38,,,7/4,,,5/6-1[12:1],,,56,,,4h[4:1],,,,,,,,
{16}1h[8:1],,2^7[8:1],4,3,4,2,,6h[8:1],,7^2[8:1],6,8,6,7,,4h[8:1],,3,4,3,5,3,6,4,7,4-1[8:1],8,4,8,4,,
6h[8:1],,7-3[8:1],8,1,2,3,,4h[8:1],,2-6[8:1],1,8,7,6,,5h[8:1],,7,8,1,2,3,4,,5/6h[16:3],,,8,7,16,,
2h[8:1],,3>6[6:1],4,5,6,7,,5h[8:1],,6x<2[24:4],5,4,3,2,,
4h[8:1],,3x,4,5,4,6,4,7,3,7qq5[7:1],2,7,1,7,,
8h[8:1],,6,7,8,1,2/3h[8:1],,5h[8:1],,3,2,1,8,7/6h[8:1],,
4h[8:1],,6,7,8,1,2,3,4/1x-4[16:2],,,,A1,,A4,
&lv_6=
&des_6=
&inote_6=
