&title=Disruptor Array
&artist=Akira Complex,kiraku
&first=1.02
&des_1=Fairoth
&des_2=Fairoth
&des_3=Fairoth
&des_4=Fairoth
&des_5=Fairoth
&lv_5=14+
&des_6=Fairoth
&des_7=Fairoth
&des=Fairoth
&inote_5=(230)
{1},
{4}B2/B3/E3/6bh[4:1],4,6h[4:1],4,6h[4:1],4,6h[4:1],4,
{8}7h[4:1],,3,,7h[4:1],,3,,7,7,4h[8:1],6h[8:1],2h[8:1],5h[8:1],3h[8:1],,
{4}B7/B6/E7/3bh[4:1],5,3h[4:1],5,3h[4:1],5,3h[4:1],5,
{8}2h[4:1],,6,,2h[4:1],,6,6,
{12}3,5,3,7,5,7,1h[4:1],,,5,,,
{16}5h[4:1],,8,,8,,6h[4:1],,1,,1,,7h[4:1],,2,,2,,8h[4:1],,3,,3,,D8,A7,D7,A6,D6,A5,D5,,
{16}3xh[8:1]/4x,,,3h[8:1]/4,,,3h[8:1]/7,,,,,,6h[8:1]/4,,,6h[8:1]/4,,,6h[8:1]/2,,,,,,3h[8:1]/C,,,7h[8:1]/C,,,2,,
{16}8xb,7,6,5,4,,1xb,8,7,6,5,,7xb,8,1,2,3,,1xb,2,3,4,5,,7xb,6,5,4,3,2,1,,
{16}4,,4,,4/8,,4,,4/7,,4,,4,6,4,6,
{12}5,7,4,5,2,4,8w4[8:1],,,8,,,
{8}1bV35[4:1],,7,7,8bV64[4:1],,2,2,3bV51[4:1],,7,7,6bV48[4:1],,2-5[8:1],2,2b,,7v4[8:1],8,7b,,2>5[8:1],1,2b,,8-4[8:1],2-6-2[4:1],8b,,,,
{16}7-5[8:1],,,4,7,,2,,2-8[8:1],,,4,2,,5,,5>3[8:1],,,2,5,,2,,8>2[8:1],,,6,8,,5,,
{16}5,,5/1,,5,,5/2,,5,,5/3,,5,4,5,4,
{12}6,4,7,3,5,2,7w3[8:1],,,7,,
,
{8}8bV61[4:1],,8/3,3,3bV14[4:1],,7/3,7,7bV16[4:1],,4/7,4,4bV63[4:1],,4/8,8,
{16}7h[8:1],,,7h[8:1]/2,,,7h[8:1]/4,,,,,,4h[8:1]/7,,,4h[8:1]/8,,,4h[8:1]/6,,,,,,6h[8:1]/C,,,2h[8:1]/C,,,8/C,,
{8}6,5,7,5,6,4,,5,3,4,2,4,3,5,,8/1,8-5[8:1]*>5[8:1],,,,1-4[8:1]*-6[8:1],,,,7-4[8:1],,2-6[8:1]/7,,2-5[8:1],5-8[8:1],2,6,
{8}6h[1:2],,,,4,,,,2,,,,8,,,,3h[1:2],,,,5,,,,7,,,,1,,,,7,4,4,6,3,3,5,2,2,6,3,7,1,5,2,6,1,4,4,2,5,5,3,6,6,4,7,7,3,5,1,6,
{24}7h[1:1],,,,,,E8/D8,B7,B6,,,,E1/D1,B1,B2,,,,B8,C,B4,,,,4xh[1:1],,,,,,E7/D7,B6,B5,C,B1,B2,E3/D3,,,,,,Ch[16:1],,,,,,
{24}6,,,6h[8:7],,,,E2/D2,B2,B3,,,,E1/D1,B8,B7,,,,B1,C,B5,,,5xh[1:1],,,,,,E1/D1,B8,B7,C,B3,B4,E5/D5,,,,,,Ch[16:1],,,,,,
{24}7,,,7h[8:7],,,E6/D6,B6,B7,,,,E5/D5,B4,B3,,,,B5,C,B1,,,,1xh[1:1],,,,,,E7/D7,B7,B8,C,B4,B3,E3/D3,,,,,,5-7[8:1],,,,,,
{8}5,,3V17[4:1],3,3/6V48[4:1],,6,,,3-1[8:1],1-5[8:1],3,,7-3[8:1],4-1[8:1],7,
{16}4-7[8:1],,,,4-8[8:1],,,,4/6-2[8:1],,,,6,,3-6[8:1],,,,3,,8-4[8:1],,,,8,,2>4[8:1],,5-8[8:1],,2,,
{16}5-2[8:1],,,,5-1[8:1],,,,5/3-7[8:1],,,,3,,6-3[8:1],,,,6,,1-4[8:1],,,,1,,7<5[8:1],,3,,7,,
{16},,4/3,,4/3,,,,5h[8:3]/4h[16:3],,,,,,,,6h[8:3]/5h[16:3],,,,,,,,7h[8:3]/6h[16:3],,,,,,,6,7,,5,,6,,4,,5,,5,,3,,3,,6,5,6,5,4-2-5-1-6[2:1],7,4,7,,,,,,,,,
{8}7xh[4:1],,B6/B5,,7h[4:1],,B6/B5,,7h[1:1],,B2,B4,B3,C,B1f/E1/E2,,2xh[4:1],,B3/B4,,2h[4:1],,B3/B4,,2h[1:1],,B7,B5,B6,,B8f/E1/E8,,
{16}7h[8:3],,,4,,,4,,6h[8:3],,,3,,,3,,5h[8:3],,,2,,,2,,4h[8:3],,,1,,,1,,6/2,,6,,6/3,,6,,4/6,,4,,4/7,,4,,7,6,5,4,1,2,3,4,5/1,,,,3-8[8:1]/7-4[8:1],,,,3b/7b,Cf/B1/B5/B2/B6,,,
{8},,,,,,7,7,6,6,7h[8:1],5,7h[8:1],5,,,,,,,,,2,2,3,3,2h[8:1],4,2h[8:1],4,2b/3b,
{8},,,,,,,8,8,5,5,7h[8:1],5-8[8:1],7h[8:1],5,,,,,,,,,1,1,4,4,2h[8:1],4,2h[8:1],4,
(240)
{8}3bh[8:3],,,6,6/5,,2,,2h[8:3],,,5,5/4,,1,,1h[8:3],,,8h[8:3],,,7h[4:1],,3h[8:3],,,4h[8:3],,,5h[4:1],,
(250)
{8}2bh[8:3],,,7,7/8,,3,,3h[8:3],,,8,8/1,,4,,2b/1b,,,3b/4b,,,6b/5b,,,7b/8b,,,1,,5,,
(265)
{8}2h[4:1],6,6,2h[4:1],5,5,2h[4:1],,7h[4:1],3,3,7h[4:1],4,4,7h[4:1],,
(280)
{8}3h[4:1],5,5,3h[4:1],7,7,3h[4:1],,6h[4:1],2,2,6h[4:1],4,4,6h[4:1],,
(300)
{8}3h[8:1],5h[8:1],4h[8:1],6h[8:1],5h[8:1],7h[8:1],3h[8:1],8h[8:1],2h[8:1],1h[8:1],3h[8:1],8h[8:1],4h[8:1],7h[8:1],5h[8:1],
(320)
{8}2h[8:1],8h[8:1],1h[8:1],7h[8:1],8h[8:1],6h[8:1],2h[8:1],5h[8:1],3h[8:1],4h[8:1],2h[8:1],5h[8:1],1h[8:1],6h[8:1],8h[8:1],
(340)
{4}7-4[4:1],7,3-8[4:1],3,6-1[4:1],6,2-5[4:1],2,
(360)
{4}7-3[4:1],7,8-4[4:1],8,1-5[4:1],1,2-6[4:1],2,
(380)
{8}8,1,2,3,4,5,6,7,1b,8,7,6,5,4,3,2,
(400)
{8}5b/1,6,7,8,1,2,3,4,
{16}1b/5,8,7,6,5,4,3,2,1,8,7,6,5-1[4:1],4,3,2,1z5s1b[230#4:7]/5b,,
(230)
{4},,,,,,,,
{16}4,,4,,4,,4,,3/5,,3/5,,3/5,,3/5,,2,6,2,6,1,7,1,7,8-4[8:1],8,8,8,8bs4b[1:3]*-6-3[1:3],,,,
{4},,,,,,,,,,,,,,E8/B8/B7,E4/B4/B3,
{24}3b/5h[4:1],2,1,8-3[8:1],,,,,,8b-4[8:1]/7,6,5,,,,8b/4,5,6,,,,,,,6b/4h[4:1],7,8,1-6[8:1],,,,,,1b-5[8:1]/2,3,4,,,,1b/5,4,3,,,,,,,
{16}6-8[8:1]/2,,,,6-4[8:1]/3,,,,6/2-8[8:1],,,,7h[8:9]/2,,,,,,,2b,,,3b,,,4b,,,5b,,,,
{24}5b/3h[4:1],6,7,8<6[8:1],,,,,,8bv5[8:1]/2,3,4,,,,8b/5,4,3,,,,,,,4b/6h[4:1],3,2,1>3[8:1],,,,,,1bv4[8:1]/7,6,5,,,,1b/4,5,6,,,,,,,
{8}5,2,2,6,3,3,7,4,4,8,5,5,1-5[8:1],,1,,
{24}4b,3,2,1-3[8:1],,,,,,1b-7[8:1]/7,6,5,,,,1b/6,5,4,,,,,,,5b,6,7,8-6[8:1],,,,,,8b-2[8:1]/2,3,4,,,,8b/3,4,5,,,,,,,
{16}3-1[8:1]/7,,,,3-5[8:1]/6,,,,3/7-1[8:1],,,,2/7,,,,,,2/8,,,2/8,,,2/8,,1,1,1-5[8:1],,2x/8x,,
{1}1xbp6<5b[4:14]*q4>5[4:14],,,,
{16}7h[8:1],,5,,7h[8:1],,5,,6,5,6,,4,,5,,2h[8:1],,4,,2h[8:1],,4,,3,4,3,,5,,,,
{16}4/7,,,4/7,,,4/7,,2/5,,,2/5,,,2/5,,6/3,,,6/3,,,6/3,,8s4[8:1]*-4b[8:1],,,,8,Cf,,,
{24}3xh[4:3]/5xh[2:1],,,,,,,,,,,,,,,,,,,,,,,,8x,1x/7x,6x/2x,3xh[8:3]/5xh[8:5],,,,,,,,,,,,,,,,,,,,,
{8}4,4,5,5,3,3,7,7,2/6,2/6,5/1,5/1,8-3[8:1]/4-7[8:1],,8/4,,
{24}8x/2h[4:1],7x,6x,5x<8[8:1],,,,,,5>2[8:1]/1b-6[8:1],2,3,4,,,1/5,,,,,,,,,1/7h[4:1],2,3,4>1[8:1],,,,,,4<7[8:1]/8b-3[8:1],7,6,5,,,8/4,,,
{16},,,,7-5[8:1]/3,,,,7-1[8:1]/2,,,,7/3-5[8:1],,,,6h[1:1]/3,,,,,,,4b,,,3b,,,1b,,,2b,,,,
{24}8/2h[4:1],7,6,5-8b[8:1],,,,,,5/1b-6[8:1],2,3,4,,,1b/5,4,3,2,,,,,,1/7h[4:1],2,3,4-1b[8:1],,,,,,4/8b-3[8:1],7,6,5,,,8b/4,5,6,7,,,,,,
{8}4,7,7,3,6,6,2,5,5,1,4,4,8-4[8:1],,8,,
{24}3/7,6/2,1/5,4/8-3[8:1],,,,,,8/4^1[8:1],5,6,7,,,8/4,7,6,5,,,,,,6/2,3/7,8/4,5/1-6[8:1],,,,,,1/5^8[8:1],4,3,2,,,1/5,2,3,4,,,,,,
{16}1,2,3h[4:7],,,,,,,,,,4,5,6,7,8h[8:7],,,,,,,,,,,,,,,,
{16}6,5,6,5,6,,3,4,3,4,3,,7,4,7,4,7,,2,5,2,5,2,,6,2,6,2,7,3,7,,
{16}2,4,2,4,2,,7,5,7,5,7,,3,5,3,5,3,,6,4,6,4,6,,3,7,3,7,2,6,2,,
{16}6,5,6,5,7,,3,4,3,4,2,,7,4,7,4,8,,2,4,2,4,1,,7,1,6,2,5,3,4,,
{16}3,5,2,5,3,,6,4,7,4,6,,2,1,3,1,2,,7,8,6,8,7,,2,8,3,7,4,6,5,,
{16}6,5,7,4,8,,3,4,2,5,1,,7,8,6,1,5,,2,1,3,8,4,,7,3,6,2,5,1,6,,
{16}2,4,3,5,4,,7,5,6,4,5,,3,1,2,8,1,,6,8,7,1,8,,2,6,3,7,4,8,3,,
{16}8b,7,6,5,4,,1b,8,7,6,5,,7b,8,1,2,3,,1b,2,3,4,5,,7b,6,5,4,3,2,1,,
{16}5b,4,3,2,1/5,8,7,6,5/1,4,3,2,1/5,8,7,6,
{24}5/8b,7,6,2b,3,4,7b,6,5,1b,2,3,
{32}8x,E8,B7,B6,E6/8xz4[4:1],E1,B1,B2,E3/8x,B8,C,B4,8bx,
E
