&title=Blow My Mind
&artist=3R2
&first=0
&des=9H[
&lv_5=14
&inote_5=(175)
{1},
{4}
6-8[8:1]/5,5,5/7-4[8:1],5,3-7[8:1]/5,5,56,45,
3-1[8:1]/4,4,2-5[8:1]/4,4,4/6-2[8:1],{8}4,4,
3/4v3[8:1],5v6[8:1],45,,
{8}
2,2,12,2,34,2,12,2,18,2,34,2,
17,26,35,28,
{16}
3,4,3,4,3,4,3,4,2,5,2,5,2-7b[8:1],5,2,5,
{4}2b,4w8[8:1],Cf,,
{16}
5/6h[8:1],,,,5/6h[8:1],,,4,4/6h[8:1],,,,3,,5,,
{4}
2h[8:1]/4>5[2:1],3h[8:1],3h[8:1],{8}2,2,
{16}
4/3h[8:1],,,,4/3h[8:1],,,5,5/3h[8:1],,,,6,,4,,
{8}
7h[8:1],5,7h[8:1],5,6h[8:1],5,5b/6b,56,
{4}
4/7>2[4:1],5,5,
{8}15,8,
{4}6q3[4:1]/7,8,8,
{8}28,1,
{4}7V51[4:1]/8,1V38[4:1],
{8}
3,4,5>5b[2:1],,1h[8:5],,,,,,
{16}
1,1,1,1,
{4}
2b-4[8:1]/8b,
{32}
A5,B5,C,B1,
{8}
A1,
{4}
1-5[8:1],
{32}
A6,E7,E8,A8,
{8},
{16}
3h[16:3],,4,4,,5,4,5,4-8[8:1],,6,,4,,,,
{4}
7-5[8:1],
{32}
A4,B4,C,B8,
{8}
A8,
{4}
8-4[8:1],
{32}
A3,E3,E2,A1,
{8},
{16}
6h[16:3],,5,5,,4,5,4,5w1[8:1],,,,,,,,
{4}
7-3[8:1],
{32}
A2,E2,E1,A8,
{8},
{4}
3-7[8:1],
{32}
A6,E6,E5,A4,
{8},
{16}
2h[16:3],,1,1,,8,8,8,7b-4[8:1]/1b-4[8:1],,,,,,,,
{8}
3x/4x,2x/5x,16,78,
{16}
1,8,2,7,3,6,4,5,
{4}
5b-1[8:1],5-2>4-1[8:3]*-8<6-1[8:3],,,
{1}
Cf,,,,
||buxiangxiele555
{4}
7>1[4:3],,,,4<6[4:3],,,,
3q7q3[2:3],,,,,,Ch[4:1],,
{4}
2h[4:1],,34,,,6,56,,
7h[4:1],,65,,,3,42,,
12,3,4h[4:1],,,56,7,8,
{8}
1x,2,3,4,
{16}
5x,6,7,8,
{32}
1x-5[8:1],2,3,4,5,6,7,8,
{4}1b,Ch[4:1],
{16}
B3,B5,B1,B7,
{8}
8xb,,
{16}
2,,2,,4h[16:3],,,,,4,,4,3,,42,,
7,,7,,5h[16:3],,,,,5,,5,6,,57,,
3,,3,,4h[16:3],,,2,,2,,4,2,,34,,
6,,6,,5h[16:3],,,7,,7,5,6,4b,,,,
3b/4b,,5h[16:3],,2,2,,2,4,3,4,3,7,,7,,
5b/6b,,4h[16:3],,7,7,,7,5,6,5,6,2,,2,,
3b/4b,3,5,5,4,4,6,6,
2b,2,4,4,5,5,7,7,
{4}
1-5[8:1],1w5b[8:1],,
{16}
,,,,
1b-5[8:1],,2,,1/7-4[8:1],,8,,2-6[8:1]/7,,,1,2,,8,,
7-4[8:1]*-3[8:1],,,,7-2[8:1],,,,4-8[8:1],4,,3,4,,2,,
1-6[8:1],,,,1/5V71[8:1],,,,25,,3,3,,1,2,1,
{4}
3-8[8:1]/8-4[8:1],38,
{8}
2h[8:1],{24}7,6,5,
{8}34,2,
{16}
1b/8b-4[8:1],,7,,2-5[8:1]/8,,1,,2/7-3[8:1],,,8,7,,1,,
2-5[8:1]*-6[8:1],,,,2-7[8:1],,,,5-1[8:1],5,,6,5,,7,,
8-3[8:1],,,,8/4V28[8:1],,,,74,,6,6,,8,78,,1b/8b,,,,
2b/7b,,,,
4b/5b,,3b/6b,,
{32}
2b/7b,E3/E7,B3/B6,B4/B5,E5f,,,,
{8}
1h[8:1],6,
{32}
1xb-7[8:1],E2,E3,A3,{8}7,
1,4,
{32}
1xb-5[8:1],E2,E3,A3,{8}5,
1,6,
{32}
1xb,E2,E3,A3,{8}7,
1/8-4[8:1],27,
{32}
1b/8b,E2,E3,A3,{8},
2xh[8:1],5-1[8:1],
{32}
2b,E3,E4,A4,{8}5,
4xh[8:1],7-3[8:1],
{32}
4b,E5,E6,A6,{8}7,
{4}
5-1[8:1]*-8[8:1],5b,
{8}
7h[8:1],{24}2,3,4,
{8}5b/6b,7,
{8}
2hb[8:7]/8hb[8:7],,,,,,,,
1hb[8:5]/7hb[8:5],,,,,,2b/6b,,
{16}
3,5,3,5,3,5,3,5,4,4,4,4,
{32}
3b,2b,1b,8b,7b,6b,5b,4b,
{4},,,1b/8b,
{16}
3h[8:1]/7h[8:1],,,,5h[8:1]/6h[8:1],,,,
2-8[8:1],,,4,,,7,,
6-2[8:1]/5-3[8:1],,,,56,,,,
1-6[8:1],,,2,,,5,,
3-8[8:1]/4-7-5[4:1],,,,34,,,,
1-5[8:1],,,4,,,7,,
8-2[8:1],,2v5[8:1],,3,,,,
4-2[8:1],,,7,,,5,,
1h[8:1]/6h[8:1],,,,4h[8:1]/3h[8:1],,,,
7-1[8:1],,,5,,,2,,
3-7[8:1]/4-6[8:1],,,,43,,,,
8-3[8:1],,,7,,,4,,
5-1[8:1],,6-8[8:1],,5,,6,,2-6[8:1],,,1,2V48[4:1],,8,,
2xb/8xb-4-2[4:1]*-6[8:1],,,,,,,,
1h[8:1],,,,1,1,1,1,
{4}
1x-5[8:1],
{32}
1b/D7f,D8,D1,D2,{16},,
5x-2[8:1],,,2x,5xb,,8x,,
{4}
7x-3[8:1],
{32}
7b/D3,D2,D1,D8,{16},,
3x-8[8:1],,,8x,3xb,,2x,,
{4}
4x-8[8:1],
{32}
4b/D6,D5,D4,D3,{16},,
8xV62[4:1],,,4x,8xb,,5x,,
{4}
5x-3[8:1],
{32}
6b/5b,B6,C,B2,{8}A2,
{4}
1x-7[8:1],
{32}
2b/1b,B2,C,B6,{8}A6,
{8}
3xh[8:1]/4x,8xh[8:1],5xh[8:1],2xh[8:1],
{32}
6b-1[8:1],E6,B5,B4,{16}E4,
1x,6xb,,7x,,
{8}
4x/5x,5x,2x/4x,2x,
{32}
1/3b-8[8:1],E4,B4,B5,{16}E6,
8x,3xb,,2x,,
{12}
7x,5x,6x,2x,4x,3x,
{16}
5xb,6,7,1b/8x,2,3,4x/7b,,
{4}5bz1[4:1]/6xV84-2b[4:1],,,
{8}
8,8,
Chf[4:1],,,,
{16}
6-4[8:1],,,8,68,,1,,
2-8[8:1]/4-8[8:1],,,,2/4-6[8:1],,,,4/8-2[8:1],,,,78,,,,
3-1[8:1],,7-1[8:1],,3,,7,,3-5[8:1],,,1,13,,8,,5-1[8:1]/7-1[8:1],,,,5-3[8:1]/7,,,,
{32}
5b/7b,E7,E6,E5,E4,E3,E2,E1,
{4}
E8f,
{8}
6-4[8:1],1-7[8:1],6,1,
{32}
4b-8[8:1],5,6,,{16},
1,14,,2,,
{8}
3-5[8:1],8-2[8:1],3,8,
{32}
5b-1[8:1],4,3,,{16},
8,85,,7,,
{16}
6h[8:1],,2,4,3,5,4,6,3b,7,2,6,1,5,8,4,
{4}
7V51-3[8:3],1-3[8:1]*-5-7[4:1],,,
{8}
2,2,2-8[8:1]/8,3,6-8[8:1],5,3-6[8:1],4,
1-7[8:1],1-3[8:1],1-5-1[4:1],1,1w5[8:1],,,,
7-5[8:1],5,3-1[8:1],1-7[8:1],5-7[8:1],5-3[8:1],5-1b[8:1],5,5bw1[8:1],,,,
2-5[8:1]/6-1[8:1],,,,
{8}
7,7,7-1[8:1]/1,6,3-1[8:1],4,6-3[8:1],5,
8-2[8:1],8-6[8:1],8-4-8[4:1],8,8w4[8:1],,,,
{16}
2,6,2,6,2,6,2,6,
{24}
1b,8,7,6,5,4,
{32}
3/8b,1,2,3,4,5,6,7,
{8}
8h[2:1]/4b,4,4V62-8[8:3],4,4-8b[8:1],,,,
{1}
1b,,,,
