&title=After Party
&artist=塞壬唱片-MSR
&first=0
&des=鲤氏谱面工作室
&clock_count=4
&lv_5=13
&inote_5=(128){1},
{4}6bh[8:1]/A4/A5/B4/B5/E5f,8bh[8:1]/A1/A2/B1/B2/E2f,3bh[8:1]/A5/A6/B5/B6/E6f,{16}2bh[8:1]/A1/A8/B1/B8/E1f,,,7b<2>7[16:17]/A3/A4/B3/B4/E4f,
{4},B2/E2,,B2/E2,,B2/E2,{24}1/7,,,2,,8,,,8,1,,,
{4}2h[8:1]/8h[8:1],3h[8:1]/4h[8:1],7h[8:1]/1h[8:1],{16}6/5,,,3/E7,
,4,5,,E3/7,,6,,1/E5,,,1h[4:1]/C,,E5,E6,E7,
,,5/7,,{4}5h[8:1]/6h[8:1],1h[8:1]/7h[8:1],{16}3/4,,,2/B6,
,3,4,,B3/7,,6,,{4}4h[8:1]/7h[8:1],2h[8:1]/5h[8:1],
7h[8:1]/1h[8:1],6h[8:1]/5h[8:1],2h[8:1]/8h[8:1],{16}3/4,,,6/E3,
,5,4,,E7/2,,3,,8/E5,,,8h[4:1]/C,,E5,E4,E3,
,,4/2,,{4}4h[8:1]/3h[8:1],8h[8:1]/2h[8:1],{16}6/5,,,7/B3,
,6,5,,B6/2,,3,,8/E5,,,8,2,3,7,6,
{24},,4,5,,5,3,,3,4h[8:1],,,1,,,,,7/8,,,1,,,1,
8,,8,2h[8:1],,,1,,,,,7/8p2[6:1],{8},,E6,E7,
{24},,5,4,,4,6,,6,5h[8:1],,,8,,,,,2/1,,,8,,,8,
1,,1,7h[8:1],,,8,,,,,2/1<4[6:1],{8},,B1,,
{24}E3,,5,3,,3,4,,4,3h[8:1],,,1,,,,,2/8,,,6,,,6,
5,,5,6h[8:1],,,8,,,,,1/7p1[6:1],{8},,E4,E3,
{24},,2,8,,8,1,,1,7h[8:1],,,8,,,,,1/7,,,1,,,1,
8,,8,2h[8:1],,,1,,,,,2,2/8,,,7,,1,,,1,8,,,
{8}1h[8:1]/7,B7,5h[8:1]/6,B6,8h[8:1]/2,B2,4h[8:1]/3,{16}B3,5,
,5,4,,E7/2,,3,,8/E5,,,8h[4:1]/C,,E5,E4,E3,
,,2/8,,{8}2h[8:1]/8,B8,1/7h[8:1],B1,2h[8:1]/8,{16}B8,3,
,4,5,,B3/7,,6,,{4}4h[8:1]/7h[8:1],2h[8:1]/5h[8:1],
{8}8h[8:1]/2,B2,4h[8:1]/3,B3,1h[8:1]/7,B7,5h[8:1]/6,{16}B6,4,
,4,5,,E3/7,,6,,1/E5,,,1h[4:1]/C,,E5,E6,E7,
,,7/8,,{8}7h[8:1]/8,B8,1/2h[8:1],B1,7h[8:1]/8,{16}B8,6,
,5,4,,B6/2,,3,,8/E5,,,8h[4:1]/C,,E5,E4,E3,
{24},,7,8,,,{48}1bx>7[4:1]/7bx<1[4:1],2x/6x,3x/5x,{16},,,{4},A8/D1/D8,
{16}1x/7xh[16:3],,,5xh[16:3],,,3xh[16:3],,,1xh[16:5],,,
{24}E4,,E6,E7,,,{48}1bx>4<7[4:1]/7bx<4>1[4:1],2x/6x,3x/5x,{16},,,{4},A8/D1/D8,
{16}1x/7xh[16:3],,,5xh[16:3],,,3xh[16:3],,,1xh[16:5],,,
{24}E4,,E6,E7,,,{48}1bx>3<5<7[4:1]/7bx<5>3>1[4:1],2x/6x,3x/5x,{16},,,{4},A8/D1/D8,
{16}1x/7xh[16:3],,,5xh[16:3],,,3xh[16:3],,,1xh[16:5],,,
{24}E4,,E6,E7,,,{48}1bx>2>3<4<5<6<7[4:1]/7bx<6>5>4>3>2<1[4:1],2x/6x,3x/5x,{16},,,{4},A8/D1/D8,
{16}1x/7xh[16:3],,,5xh[16:3],,,3xh[16:3],,,1xh[16:5],,,
{24}E4,,E6,E7,,,{48}1bx>7>4[8:23]/7bx<1<4[8:23],2x/6x,3x/5x,{16},,,{2},{1},,
{2},{8},B4,1/7,,
8>3[8:1],,7h[4:1]/8,,5-8[8:1],,4/5,3,
2p6[8:1],2h[8:3],,,5-8[8:1],,4/5,,
1<6[8:1],2,5,4,5-8[8:1],6,4,3,
2v7[8:1],4,6h[4:1],,5-8[8:1],,4/5,3,
2pp6[8:3],8,,8,,8,5,5/8,
4v1[6:1],4/7,,7,,7/1,2,7/3,
4-1[8:1],5,6-3[8:1],7,1-5[8:1],2,7,{24}8,,8,
,,4,,,5,3,,,2,,1/2,,,3/8,,,4,5,,6,8,,,
{8}1/7h[8:1],B2,5/6h[8:1],B4,8/2h[8:1],B7,4/3h[8:1],{16}B5,2,
,3,{8}4,7/B4,6,3/E5,E2,3/B6,E2,
3h[8:1],8,2h[8:1]/8,B7,4/6h[8:1],B4,3h[8:1]/5,{16}B5,2,
,4,{8}2,1/6,8,{24}7,,5,7,,,4/6,,3,,,,
4/5,,,7,,5/7h[8:1],,,2,,,4/3,,,2h[8:1],,,4,3,,5,{16}4,7,
,8,{24}7,,,6h[8:1]/5,,,B4,,,2,,2h[8:1],,,1,,,3/8,,,,
2,,4,2,,4,2h[8:1],,,8h[8:1],,,5,,4/5,,,3,5,,5,4,,,
4/6h[8:1],,,7,,6,,5,,,2/4,,,,3,5,,,7,,5,6,,6,
,,2,1,,,{48}8bx<2[4:1]/2bx>8[4:1],7x/3x,6x/4x,{16},,,{4},A1/D1/D2,
{16}8x/2xh[16:3],,,4xh[16:3],,,6xh[16:3],,,8xh[16:3],,,
{24}2,1,2,1,2,1,{48}8bx<5>2[4:1]/2bx>5<8[4:1],7x/3x,6x/4x,{16},,,{4},A1/D1/D2,
{16}8x/2xh[16:3],,,4xh[16:3],,,6xh[16:3],,,8xh[16:3],,,
{24}1,8,1,1,1,1,{48}8bx<6>4>2[4:1]/2bx>4<6<8[4:1],7x/3x,6x/4x,{16},,,{4},A1/D1/D2,
{16}8x/2xh[16:3],,,4xh[16:3],,,6xh[16:3],,,8xh[16:3],,,
{24}1h[48:1],,1h[48:1],,1h[48:1],,{48}8bx<7<6>5>4>3>2[4:1]/2bx>3<4<5<6<7>8[4:1],7x/3x,6x/4x,{16},,,{4},A1/D1/D2,
{16}8x/2xh[16:3],,,4xh[16:3],,,6xh[16:3],,,8xh[16:11],,,
{2},{48}2b,B8,Cf,{16}B4,,,{4}2<4[8:3],2,2,{48}2b,B4,Cf,{16}B8,,,{4}2V47[8:3],
{8}2,2,,2,{48}1b,B7,Cf,{16}B3,,,{4}1p3[8:3],1,1,{48}1b,B3,Cf,{16}B7,,,{4}1p8[8:3],
{8}1,1,,1,{48}2b,B8,Cf,{16}B4,,,{4}2<4[8:3],2,2,{48}2b,B4,Cf,{16}B8,,,{4}2V47[8:3],
{8}2,2,,2,{48}1b,B7,Cf,{16}B3,,,{4}1q3[8:3],1,1,{48}1b,B3,Cf,{16}B7,2,,{8}3,{24}4,5x,6x,
{8}5xh[2:1],6,7,8,{48}7b,B5,Cf,{16}B1,,,{4}7<1[8:3],7,7,{48}7b,B1,Cf,{16}B5,,,{4}7V14[8:3],
{8}7,7,,7,{48}6b,B4,Cf,{16}B8,,,{4}6p8[8:3],6,6,{48}6b,B8,Cf,{16}B4,,,6q3[8:3],,,7x,
,,6x,,,,5,,{48}5b,B3,Cf,{16}B7,,,{4}5>7[8:3],5,5,{48}5b,B7,Cf,{16}B3,,,5,,3,4,
{8}2/4,3,5/7,6,1/4,3,5/8,6,{24}2,,,4,,3,7,,,5,,6,1w5[8:1],,8,1,,,{4}1b,
{8}2h[8:1]/8,6,3h[8:1]/4,6,7h[8:1]/1,3,6/5,{16}3,7b,
,5,{8}4,2/6,5,4/6h[8:1],2,{16}3h[8:1]/D5,E6,E7,E8,
{8},2/8,2h[8:1]/8,5,1/7h[8:1],4,2/8,{16}5,3,
,4,{8}5,3/7,5,3/4,1,5/6,8,
{8}7h[8:1]/1,3,6h[8:1]/5,3,2h[8:1]/8,6,3/4,{16}6,2,
,4,{8}5,7/3,4,5/3h[8:1],7,{16}6h[8:1]/D5,E4,E3,E2,
{8},7/8,7h[8:1]/8,4,1/2h[8:1],5,7/8,{16}4,6,
,5,{8}4,6/2,4,{16}6/5,,,2h[16:3]/8,,,{24}7,6,5,
{16}3/4bh[8:1],,,,8/2bh[8:1],,,7,6bh[8:1]/4,,5,,7bh[8:1],1,,2b>7[16:7]/B6,
{4},,,{24},,,8,1,8,{16}2,3,7,6,3,4,6,5,1b,4,3,8b,5,6,1b,,
,{32}B6,B5,{16}E2,E8,E3,E7,E4,E6,E1,E5,B2,B7,B4,,5b/8b,5b/8b,
