&title=オペラ! スペースオペラ!
&artist=ナユタン星人 ワンダーランズ×ショウタイム; 鏡音レン
&first=0.03
&des=Avocado
&clock_count=4
&lv_5=13+
&inote_5=(198){4},,,,,,,,47,6,25,
{8}3,47,,{8}2h[8:1]/5h[8:1],,37,,{8}2,2,4,3,4,{4}3,{8}3,3,4,1h[8:1],,8,72,36,
4s8[8:1]/5z1[8:1],,4bx/5bx/Cf/E6/B6/B7/E8/E4/B3/B2/E2,,
{12}1x,8x,7x,5x,4x,3x,8x,7x,6x,4x,3x,2x,7x,6x,5x,3x,2x,1x,6x,7x,8x,3x,2x,1x,
{8}6,5,6,6,5x,7,4x,4,
{12}5,6,7,4,3,2,
{8}1x/8x,B1/E2/B2,B8/E8/B7,,
{12}1x,8,7,5x,4,3,8x,7,6,4x,3,2,7x,6,5,3x,2,1,6x,7,8,3x,2,1,
{8}6,6,5,6,5x,8,8x,5,
{12}7,5,6,2,4,3,
{4}Cf/E6/E2,
{16}6,5,6,5,{4}6,57,3,42,{8}45,4-8[8:1]/5-1[8:1],,45,,8,1,8,
{8}18,,34,18,,8,1-5[8:1],8,8-4[8:1]/1,,2-5[8:1]/8,,5/2,,6,,
{4}5h[4:1]/6,6,4h[4:1]/3,3,{8}5/3,5V71[8:1]/3h[8:1],,53,,,
{16}3,1,3,1,3,,,,{8}8,2,,7,1,6,{4}16,16,16,
{16}3,4,3,4,{8}3,,5,4,,6,5,,6<2[8:3],,8^2v4[8:2],2v4[8:1],,
3h[8:1],,3,4,,5,3,6,4,5,4,45,,
3pp1[4:1],3,,,
8,,2,,8,3,,8,4xw8[5:1],8xw4[5:1],,,,,,
7-4[8:1]/3-8[8:1],,7/3/Cf,,8,2,7,3,6-8[4:1],,6/3-1[0.456##0.1],,,3/6-8[4:1],,3/6,,,,
{8}5/3qq4[2:1],,,,E6,E7,E8,E1,6/4^1[2:1],,,,E7,E8,E1,C,7/1-4[8:5],,,,
E6,E7,E8,E1,,{4}B7/E8/B8,B2/E3/B3,E6/B5/B6,{8},
{4}3/5<8<5[4:6],2,1,8,1,2,3,4,54,6,2,7,{8}1,8,1,8,{16}1,8,1,8,1,8,1,8,
{8}Ch[4:3]f/A7,,B7,B8,E1,B1,B2,A2,7V51[0.456##0.2]b/2V48[0.456##0.2]b,,18,7b/2b,Cf/E1/D1,,,,
{4}27,B7/B8/E8/B1/B2/E2,18,34,{4}8b/7b,3b/4b,8b/7b,3b/4b,
{4}4qq1[4:1]/5pp8[4:1],Cf,,18,83,E8/B8/E1/B3/E3/E4,16,E6/B6/E7/B1/E2/E1,
6h[8:3]/3qq4[4:1],3,5-8[8:1]/5-1[8:1],5b,6qq7[4:1]/3h[8:3],6,8-3[8:1]/8-4[8:1],8b,
{8}1b/7b,,6,8b/2b,,3,4,5,
{8}4b/6b,7,8x,,5b/2b,1,
{4}8-4[8:1]b,4b-8[8:1],8w4[8:1]b,8bx,3-8[8:1]/4,7,4-7[8:1]/3,8,34,
{6}3/5h[6:1],7h[6:1],8,1/2h[6:1],4h[6:1],6,
{4}8h[4:1],{12},81,72,3h[4:1]/6h[4:1],,,
{4}Cf,82,73,64,5-1[8:1],5qq5[8:1]/5pp5[8:1],5w1[8:1],B5/Cf/B1,,
3>6[1.064##0.912]b/3p6[1.064##0.912]b,{8}5,7,,1,,3b,,,Chf[4:1],,,,
{8}7/6-2[8:1],,6/7-1[8:1],,7/6-2[8:1],,6/7-1[8:1],,67,,7pp2[4:1]/6p3[4:1],,,,,
32,2/3-7[8:1],,3/2-8[8:1],,2/3-7[8:1],,3/2-8[8:1],,3/2,,2qq7[4:1]/3q6[4:1],,,,,,
{16}5,6,5,6,{8}5-8[0.456##0.152],,4,5/3,,{16}2,1,2,,
{8}2,3/1-4[0.456##0.152],8,7,6/1,,3,5,4,56,7,,34,2,34,5,46,{12}7h[8:1]/4h[8:1],,6h[8:1]/1h[8:1],,8h[8:1]/3h[8:1],,6h[8:1]/2h[8:1],,,
{8}3h[16:1],7h[16:1],
{4}6h[8:1]/2h[8:1],8h[8:1]/4h[8:1],6h[8:1]/2hbx[8:1],8hbx[8:1]/4h[8:1],
{8}1bx<5b[0.456##0.152],5>1[0.456##0.152],,1b,,8h,2h,6h,
{4}3h[8:1]/7h[8:1],1h[8:1]/5h[8:1],3h[8:1]/7hbx[8:1],1hbx[8:1]/5h[8:1],
{8}8bx>4b[0.456##0.152],4<8[0.456##0.152],,8b,,,{16}1,8,1,8,
{8}1-5[0.608##0.152],,2,,1x/3x,,2,4,,5/4-8[0.304##0.152],3,7x/4x,,5,4,5,4/Chf[2:1],4,4,,
4,4,4,4/8z4[4:1],,1x,2,3,4s8[8:1]/5z1[8:1],,4bx/5bx/Cf/E6/B6/B7/E8/E4/B3/B2/E2,,
{12}6x,5,6,3x,4,3,7x,5,6,2x,4,3,8x,5,6,1x,4,3,8x,6,7,1x,3,2,
{8}6,5,4,5,4x/6x,1,3x/5x,8,
{12}1x,7,1,8x,2,8,4h[4:1],,,5,,,
{2}5-3[2:1],3>6[2:1],6V82>3[2:1],3<6[2:1],6z2[2:1],2V47[2:1],7V52[2:1],2,
{8}3qq8[2:1],,,4-7b[8:1],4b,,,,6pp1[2:1],,,5-2b[8:1],5b,,,6x/5x,8,,46,1,,35,8,7,
{6}3h[8:1]/6h[8:1],5h[8:1]/2h[8:1],1h[8:1]/8h[8:1],7h[4:1]/Chf[4:1],,,
{4}27,B7/B8/E8/B1/B2/E2,18,3-8[8:1]/4-7[8:1],3b/4b,3-8[8:1]/4-7[8:1],3b/4b,3bx/4bx,
{6}5h[6:1],6h[6:1],7h[6:1],4h[6:1],3h[6:1],2h[6:1],
{8}1hb[4:1]/8hb[4:1],,,{16}E8/E2,B6/B3,A4/A5/E6/E4,,,,
{8}Cf,1,7/8,,6/5,,4/3,,2bx/1bx>4[8:1]b/1bx<6[8:1]b,,1bx-5[8:1]b,,1bxw5[8:1]b,,1bx,,,,
{8}3,6,3,6,2b,7b,2b,7b,{16}1b,8b,1b,8b,1b,8b,1b,8b,1b,,,,
{8}47,,6/5-2[8:1],6,6b/5,6,6/5-2[8:1],6,6b/5,6,6bxp5[0.456##0.304]/5bx>6[0.456##0.304],6b,,56,,,,,
3/4-7[8:1],3,3b/4,3,3/4-7[8:1],3,3b/4,3,3bxq4[0.456##0.304]/4bx<3[0.456##0.304],3bx,,43,,,,,
{8}5h[4:1]/1h[4:1],,,,6h[4:1]/2h[4:1],,,7h[2:1]/3,,6-2[8:1],5,6,,5,4,5,
Chf[8:7]/4,4,4,,4,3,2,1,,18,27,36,4b-2b[8:1]/5b-8b[8:1],,4b/5b,,
3h[4:1]/6h[4:1],,,,2h[4:1]/7h[4:1],,,8s4[4:1]/1,,8,1,2,{8}3>7b[8:1],,3bx,
