&title=絶対零度
&artist=かねこちはる
&first=0.77
&des=AbnormaL
&lv_5=14+
&inote_5=(209){4},,,
{16}B5,B6,B7,B8,
{1}1q5q1[4:7],,
{1}5q1q5[4:7],,
{1}2xb>2[4:7],,
{1}6<6[4:7],,
{4}3,3,3,3,3,3,3,{8}3,3,
{4}24,2,2,2,15,1,16,1,
{8}5,5,45,5,35,5,25,5,
{8}15,1,16,1,17,1,18,1,
{16}1,8,1,8,2,7,2,7,3,6,3,6,4,5,4,5,
{24}4x,E4,E3,5x,E6,E7,4x,E4,B2,5x,E6,B7,{32}B4,B3,B2,B1,B8,B7,B6,B5,E4,E3,E2,E1,E8,E7,E6,E5,
{8}8b-4[8:1],3>5[4:1],8,3,,,{16}1,8,7,6,
{8}5-1[8:1],3<1[4:1],5,3,,,{16}4,5,6,7,
{8}8-4[8:1]/1-5[8:1],,18,,3-7[8:1],4-8[8:1],3,4,
{16}E4,B4,B5,E6,,,6-1[8:1]/5-2[8:1],,,,65,,,,,,
{16}1-6[8:1]*-4[8:1],,,,1,,,,35,,,47,,,16,,
{8}2-6[8:1],5<2[4:1],2,5,,,{16}5,4,3,2,
{8}1-4[8:1]/8-5[8:1],,18,,1-5[8:1],8>6[4:1],1,8,,,1h[16:1],,
{16}64,,,52,,,83,,
{8}2-5[8:1],1,2<4p3[2:1],,,,,,
{16}1h[8:1],,,1h[8:1],,,1,,24,,{16}E5,B5,B6,E7,,,
{16}4h[8:1],,,4h[8:1],,,4,,{16}B4,B6,B2,B8,B1,,,,
{16}1-6[8:1]*-4[8:1],,,,1,,,,35,,,47,,,16,,
{8}5-2[8:1]*-8[8:1],,5,,3-8[8:1],4,3<1[4:1],,,,{16}E4,B4,B5,E6,8,,1,,27,,,,
{16}4,5,4,5,2,1,2,1,3,4,3,4,8,7,8,7,
{8}1w5[8:1],,1,,3-8[8:1],4-7[8:1],3,4,
{1}2b>2[4:14],,,,
{8}5h[4:1],,4,5,,,3,4,{16}2h[16:3],,,5h[16:3],,,3h[2:1],,,,,,,,7,6,
{16}5h[4:1],,,,2,,,,3h[16:3],,,4h[16:3],,,5,,6h[4:1],,,,5,,6,,
{16}4,3,2,1,8,7,6,5,
{8}4/8<3[4:1],,3^8[8:1],,,,2,6,
{16}1>5[16:3],,,5<3[4:1],,,,,,,,,,,7,6,
{16}5<2[4:1],,,,2,,,,3h[16:3],,,4h[16:3],,,5,,6h[16:3],,,5h[16:3],,,4,,{12}2,4,2,6,5,6,
{8}4b^1[8:1],,,7b-4[8:1],,,1,1,
{16}1b-5[16:1]/6,,,7b-4[16:1],,,2b,,,,,,,,1,2,
{16}3^6[8:1],,,,38,,,,7h[16:3],,,6h[16:3],,,5,,
{1}1b>1[4:14],,,,
{16}3,4,3,4,3,,2/5bq1q5[8:17],,{4},,
{1},,
{16}B1,B2,B3,B4,B5,B6,B7,B8,B1,B2,B3,B4,B5,B6,B7,B8,
{4}7-5[8:1],8,1-7[8:1],2,3-1[8:1],4,5-3[8:1],6,
{4}7-4[8:1],78,2-5[8:1],21,6-1[8:1],65,3-8[8:1],34,
{8}7-4[8:1],7,2-5[8:1],2,8-4[8:1],8,1-5[8:1],1,6-1[8:1],6,3-8[8:1],3,5-1[8:1],5,4,4,
{16}36,4,5,6,7,8,1,2,{32}3x,4x,5x,6x,7x,8x,1x,2x,3x,4x,5x,6x,7x,8x,1x,2x,
{8}3x/4bw8[8:1],,,,1w5[8:1],28,1b,,
{16}1^4[8:1],,,,1^6[8:1],,8,,1-4[8:1],,,1,5-8[8:1],,5,,
{16}5-2[8:1],,,,5^8[8:1],,6,,5^2[8:1],,,5,1-6[8:1],,1,,
{16}1-4[8:1],,,,1^6[8:1],,,,1^4[8:1],,,1,5-8[8:1],,5,,5-2[8:1],,,,5^8[8:1],,,,5^2[8:1],,,5,1-6[8:1]*-4[8:1],,1,,
{16}1,,,,1^6[8:1],,8,,1-4[8:1],,,1,5-8[8:1],,5,,
{16}5-2[8:1],,,,5^8[8:1],,6,,5^2[8:1],,,5,1-6[8:1],,1,,
{16}1-4[8:1],,,,1^6[8:1],,,,1,,2,,1,,8,,
{16}6h[8:1],,5,6,,,2h[8:1],,1,2,,,34,,25,,
{16}4^1[8:1],,,,4^7[8:1],,5,,4-1[8:1],,,4,8-5[8:1],,8,,
{16}8-3[8:1],,,,8^5[8:1],,7,,8^3[8:1],,,8,4-7[8:1],,4,,
{16}4-1[8:1],,,,4^7[8:1],,,,4^1[8:1],,,4,8-5[8:1],,8,,8-3[8:1],,,,8^5[8:1],,,,8^3[8:1],,,8,4-7[8:1]*-1[8:1],,4,,
{16}4,,,,4^7[8:1],,5,,4-1[8:1],,,4,8-5[8:1],,8,,
{16}8-3[8:1],,,,8^5[8:1],,7,,8^3[8:1],,,8,4-7[8:1],,4,,
{16}4-1[8:1],,,,4^7[8:1],,,,4,,3,,4,,5,,
{16}7h[8:1],,8,,4h[8:1],,3,,2h[8:1],,1,,5h[8:1],,6,,
{8}1s5[16:3]/8z4[16:3],27,1b/8b,,,,{16}4,3,2,1,
{8}8-4[8:1],6<4[4:1],8,6,,,{16}5,46,37,28,
{8}1v4[8:1]*v6[8:1],,1,,3-8[8:1],4-7[8:1],3,4,
{16}3,4,5,6,,,8-3[8:1]/7-4[8:1],,,,78,,,,,,
{8}1-3[8:1],4,1-5[8:1],6,{16}1^6[8:1],,,1,3,,2,,
{8}8-4[8:1],7>5[4:1],8,7,,,{16}1,2,3,4,
{8}5-2[8:1]/6-1[8:1],,56,,4-7[8:1]/3-8[8:1],,43,,5-2[8:1]/6-1[8:1],,56,,4-7[8:1]/3-8[8:1],,43,,
{8}5-2[8:1],6-1[8:1],5,6,3-8[8:1],4-7[8:1],3,4,
{32}3,4,5,6,7,8,1,2,3,4,5,6,7,8,1,2,{8}3-7[8:1]/4-8[8:1],25,34,,
{16}2-5[8:1],1,,1,2,,8,,7-3[8:1]*-5[8:1],,68,,7,,,,
{16}2^5[8:1],1,,1,2,,8,,7-3[8:1]*^5[8:1],,68,,7,,,,
{16}2-5[8:1],1,,1,2,,8,,7-4[8:1]*-5[8:1],,68,,7,,,,
{16}2^5[8:1],1,,1,2,,8,,7-4[8:1]*^5[8:1],,68,,7,,,,
{16}3-8[8:1],4,3,4,3,,5,,6-2[8:1]*-8[8:1],,75,,6,,,,
{16}3^8[8:1],4,3,4,3,,5,,6-2[8:1]*^8[8:1],,75,,6,,,,
{16}3-8[8:1],4,3,4,3,,5,,6-1[8:1]*-8[8:1],,75,,6,,,,
{16}3^8[8:1],4,3,4,3,,5,,6-1[8:1]*^8[8:1],,75,,6,,,,
{16}4,5,4,,,3b/6,5,4,5,4,5,,,3/6b,4,5,4,5,4,,,3b/6,5,4,5,4,5,,3b/6b,,4,,
{1}4<4[4:7],,8b,
E
