&title=last | moment
&artist=onoken
&first=0.07999999
&lv_5=14
&des_5=Popcorn
&inote_5=
(175){4},,,,6pp4[4:3],
{8}2,6,,3,,C,
,,,,,,,,{4}3qq5b[4:3],
{8}7,3,,6,,C/B6,
,,,,,,,,{4}4>6>5[4:3],
{8}2,5,,4,,3,
,,,,,,,,{4}5<4b[4:3],
{8}7,3,,4,,5,
,,,,{2}7h[2:1],
{4}2,{8}8/1,2,{4}3-5[8:1],6,
8/1,7,6-4[8:1],3,
8/1,{8}2,5/3-7[8:1],,3/5-1[8:1],,5,
,,,,{4}8h[4:1],5h[4:1],
7,7x/5x,{2}4x/6h[4:1],
{4}6/4>8[4:1],5,5<1[4:1],3,
3,{8}7h[8:1],3h[4:1],,6h[4:1],,4xq5<1[8:19],
,,,,,7x,6x,5bx>1b[8:11],
,,,,,,,,,,,,,,,,{4}6/3h[4:1],
{8}5h[8:1],4h[8:1],{4}6,6/2,
{8}3h[8:1],5h[4:1],,4v1>4[8:3],{16},,,,,,5x,6x,
{4}7x,{8}6h[8:1],2h[8:3],,,{4}6,
{8}2h[8:1],6,,1/7,,,{4}8/4,
{32}E3/1x<6[8:1],B3,{16}B4,,,,,{8}2x,3x,4,3x<6[8:1],2,
1,8>3[8:1],7,6,{2}5bxh[4:1],
{4}8/1,{8}7/2-5[8:1],2,{4}8<5[8:1],8/4x-8[8:1]*-2[8:1],
{8}4,,,7,{4}1>4[8:1],{8}1/5,6,
{4}8<5[8:1],{8}8/4,3,{4}2-6[8:1],2/6,
{8}5x<8[8:1],4,3,{24}1x,2x,3x,{4}4x,5/4h[4:1],
{8}5,6h[4:1],5,4h[4:1],5,6h[4:1],5,3h[4:1],
5,7h[4:1],4,2h[4:1],,7<3[8:1],8,4,
{24}2x,1,8,7,6,5,{16}3x,4x,2,5,7,3,6,4,8,2,{8}5bh[8:5],
,,{4}2,3,4,
{8}6x/8x,1/5,{16}2,4,{8}3,4/5,{16}6,5,{8}6,{16}7/5,4,
{1}3x>6>5[8:3],
{8}4/8,{16}7,5,{8}6,{16}6,4,5,3,{8}4,{16}4,2,{8}4qq2[8:3]*pp6[8:3],
,,,,,,7h[4:1],4h[8:1],
,5,8x,8,4,3,1,1,
7-4[8:1],7,2-5[8:1],2,8-4b[8:1],8,{4}2h[4:1],
{8},3bx/4bx,3x,7,6b/5b,6,1,7b/8b,
{4}7,{8}6/4,4,6/3,6,{4}4>8[4:1],
8b<4b[4:1],4xqq2[4:1]*pp6[4:1],{8},,,,8x,
7h[4:1],8,2h[4:1],{4}8,{8}1,3h[4:1],
8,7x<5[8:1],4,3x,3,4x>2[8:1],5,6x,
{16}8b-3-5[4:1],1x,{8}7,{4}8/2xh[8:1],{8}1bx-5[8:1],7,1/8-4[8:1],7,
{4}8/3,{8}3x,4x,8/5h[4:1],6x,7x,8x,
{16}4x,8x,3,7,2,6,1,5,{24}2,3,4,5,6,7,{32}8,1x,2x,3x,4x,5x,6x,7x,
{1}8bxq6q2>3<4b[4:11]`4xq2q6<8[4:11],
,,,{8}B6/B5,
,,B2/E3,,,{4}B7/B8,
{8}B5/B4,E3,,,{4}E2,B7/B8,
{8}2xh[8:3],,,1h[8:3],,,{4}8h[8:3],
{8},7h[8:5],,,{4}2-5[8:1],2,
8h[8:3],{8}1,2h[8:3],,7,{4}6h[8:3],
{8}3,4h[8:3],,,{2}5b-8[8:1],
{4}1h[8:3],{8}8x,7h[8:3],,2,{4}3h[8:3],
{8}6,5h[8:3],,,{2}4-1b[8:1],
{4}5h[8:3],{8}4,3h[8:3],,6,{4}7h[8:3],
{8}2,1h[8:3],,,{2}8x-4[8:1]*-4[8:1],
{8}3x/6x,5x,4x,3,6/2,5,4,3,
{2}5/2h[4:3],7h[4:1],
{16}3,4,3,4,{8}3,{16}6,5,6,7,{8}6,{16}1,8,{8}1,
3-8[8:1],3,6-1[8:1],6,2x,{16}2x,3,{8}4,{16}6,5,
{8}7,4/8,3/1,{16}2,8,3,7,4,6,{4}5v2[8:1]*v8[8:1],
{2}5b,{16}7,6,5,4,1,2,3,4,
6,7,8,1,{8}3-6[8:1],4,7-2[8:1],8,3qq5<3<4[4:3]*qq5[32:11],4x,
{1}C/B6/B5,
{16}6,5,6,5,{8}6,{16}3,4,3,2,{8}3,{16}8,1,{8}8,
6-1[8:1],6,3-8[8:1],3,7x,{16}7x,6,{8}5,{16}3,4,
{8}2,5/1,6/8,{16}7,1,6,2,5,3,{4}4v7[8:1]*v1[8:1],
{2}4b,7h[4:1]/3h[4:1],
{4}3/7b-3[8:1]*-3[8:1],{8}2/7,1b-5[8:1]*-5[8:1],,1/6,{4}8b-4[8:1]*-4[8:1],
{8}8/3,2b-5[8:1]*-5[8:1],,2/6,{4}7b-4[8:1]*-4[8:1],7/3b,
{8}6xh[4:1]/2xh[4:1],,,6h[4:1]/3h[4:1],,,{4}5h[4:1]/2h[4:1],
{8},6h[4:1]/3h[4:1],{16},,,,4h[4:1]/7h[4:1],{32},,,,,,,,,,,,5xpp8[16:9],4x,
{1}3x,
{8},2>1[1:1],,,,,,,,,,,{2}8>7b[1:1],
{8},,,,,,,,4xh[4:1]/6xh[4:1],
,,3h[4:1]/6h[4:1],,,{4}5h[4:1]/3h[4:1],
{8},4h[4:1]/2h[8:3],,,,,{4}2-6[8:1],
{8}2/7,{16}1,8,7x,6,2/5x,3,4,5,6,7,8,1,{8}2/7-5-1[16:3],
,7/3,,,{4}4-6-8[16:3],4/3,
2-4-8[16:3],1/2b,{16}6x,5x,7x,4,8,3,{8}1,
{4}2b-5[8:1],6-3[8:1],{2}4x-1[8:1],
{16}7/8,6,5,4,1,2,3,4,1,8,7,6,3x,4x,3,4,
{4}6<1[8:1]/2>5[8:1],6b/2,{16},,,,2/1,3,4,5,
8,7,6,5,8,1,2,3,6x,5x,6,5,{4}3>8[8:1]/7<4[8:1],
{2}3b/7,{4}6/3-8[8:1],5,
7-4[8:1]/2bxv5b[8:1],2/7,{16}1,8,2,7,3,6,4b-8[8:1]*-8[8:1],5,
,,,,{4}6,3bxh[8:3],7h[8:1],
{8}8b-5[8:1]*-5[8:1],1,2,3b-8[8:1]*-8[8:1],4,5,6b-3[8:1]*-3[8:1],7,
8,1b-6[8:1]*-6[8:1],2,3,{16}4bx,3x,2x,1x,8,7,6,5,
{4}8bx/4xh[8:1],{16}2,1,3,8,4,7,5,6,{8}5,4xh[8:1],
3h[8:1],2h[8:1],1h[8:1],{16}4x,3,2,1,8,7x,{24}4x,3,2,1,,,4x,
3x,2x,1x,8,7,{8}6/3,{16}4,5,4,5,{8}4,{16}6,3,6,3,
{8}6,{16}1,8,2,7,1,8,7,6,5,{32}4bxv1b[32:3]`8xv5[32:3],7x/3x,6x/2x,5x/1x,,,,,{16}Cf/B1/B8/B5/B4`4bx<7>1>4b[16:53]`8x>3<7>8[16:53],
{1},,,,{4}6pp4[4:3]*pp4[4:3],
{8}2,6,,4,,3,
,,,,,,,,{4}3qq5[4:3]*qq5[4:3],
{8}7,3,,5,,6,
E
