&title=Tiny Giant 小巨星
&artist=三Z-STUDIO/HOYO-MIX/애슐리 윤
&first=0
&des= 红孩儿
&lv_5=13
&inote_5=(117)
{1},
{16}7h[16:3],,,5,7,,4-1b[8:1],,5,,,,6<1[8:1],,,,
{4}4>1[8:1],6,37,B7/B8/B2/B3/B4/B6,
{16}2h[16:3],,,4,1pp2b[32:6],,5h[8:3],,,,,,2x,,,,
{4}E1f/8xh[8:1],E7f/8xh[8:1],E5f/8xh[8:1],E3f/8xh[8:1],
{16}3h[8:1]/5,,,,E7/1,,,,5/3,,6h[8:1],,E7,,,,
{8}73,4h[32:4],6,4h[8:1],6-4[32:3],,7,,
{16}6h[8:1]/5,,,,B2/7,,,,56,,4h[8:1],,B2,,,,
{8}45,2h[8:1],4p5q4b[16:6],,7xh[8:2],,,,
{16}3xh[8:1]/5,,4,,C/2,,,,{16}6h[8:1]/4,,5,,C/7,,,,
{8}36,4h[8:1],5h[8:1],4h[8:1],3<6[8:1],2h[8:1],,,
{16}4xh[8:1]/6,,7,5,6,,2,4,3,,5h[8:1],,B6,,B3,,
{8}7h[8:1],5,35,57,4w8[8:1],5,,,
{64}E1,B8,C,B4,{16}E5,,,{24},,,36,,{48},{24}4x,5x,{48},{24}5x,3x,,3x,7xV58-4[32:9],,
,8,,,
{16}2xh[16:3],,,,3,,5,1h[16:3],,,7xb-3[8:1],,5xb,,3,,
{16}1xh[16:3],,,4,2,,{24}5,,6,4,,6,2,,,8-5[8:1],,,6,,,
{8}
3>6[4:1],,7,5p4[4:1],,3,1xh[384:1],1xh[384:1],
{8}
6x/2x-4[64:7],,5-2[32:4],,{24}1h[24:5],,,,,3x,{8}7x,84,
{8}
3x/7x-4[32:4],,3-7[32:4],,{24}8h[24:5],,,,,6x,{8}2x,51,
{24}
2x/6x,,,6,,4,7xh[12:1],,,3,,5,2xh[12:1],,,6,,4,8xh[12:1],,,2,,,
{16}1,1,3,3,5,5,7,7,1w5[8:1],,,,{384}1b,B5f,,,,,,,,,,,,,,,
,,,,,,,,,,,,,,,,
,,,,,,,,,,,,,,,,
,,,,,,,,,,,,,,,,
,,,,,,,,,,,,,,,,
,,,,,,,,,,,,,,,,
{8}3b-5[32:3]/7,1,3x/7-3[8:1],{16}1,1,{8}3-5[32:3]/7,1,3x/7,1,
{16}4,6,2,2,4h[8:1],,1,,23,,45,,67,,5,,
{8}7b<4[32:4]/3,8,7x/2-6[8:1],{16}8,8,{8}2/6>3[8:1],8,3/6x,2,
{12}5h[12:2],7,7,4h[12:2],2,2,{8}7qq6[32:6]*-3[8:1],3,,,
{8}2bq6[32:4]/7x,1,2x/8-4[8:1],{16}1,1,{8}2q6[8:1]/8,1,2x/7,8,
{16}7,3,5,5,1h[8:1],,4,2,6h[8:1],,4,,37,,15,,
{16}4b-1[8:1]/2,,3,,6/4x<7b[8:1],,5,5,4>1[8:1]/2,,3,,4x/6,,5,,
{12}41,2,2,85,7,7,{8}6xp2[16:2]/3xq7[16:2],C,,,
{8}1h[8:2]/8h[8:2],,,,E5,6h[8:1],5h[8:1],4h[8:1],
{8}Ch[16:3],,8-5>3[16:5],Ch[16:3],,,,,
{8}2h[4:1],,1,7,D4,D5,D6,4xh[8:1],
{16}6,,,7v6-4[16:6],5,,1xh[16:6],,,,,,,,C,,
{12}45,6,3,37,2,8,71,6,2,{8}4h[8:1],3x,
{12}24,3,4,75,6,5,17,8,1,{64}E8f/E2,C,E5,D5,,,,,,,,,,,,,
{32}2,,,2h[32:3],,,4,,A7/E7/E8,,,,A2/E3/E2,,,,
{32}8,,,8h[32:3],,,5,,A6/E7/E6,,,,A3/E3/E4,,,,
{16}7,7,4,3,5,6,2/7,,3/6,,2/7,,1s5[16:9]/8z4[16:9],,,,
{4},,,3-6b[8:5],,,,7-2[8:5],,,,4q6p4[16:12],6xh[8:4],,,8<5-1>4[8:6],2xh[8:2],,3xh[8:2],,
{4}6h[8:6]/4,B6,C,B2,2h[8:6],E4,E5,E6,{8}7p6[32:9],,1,,2q3[32:9],,8,,{4}Ch[4:1],1w5[32:4],,7x<4b[8:1]/3x,
{16}3,,,,25,,3,4,,4,3,,{8}6-3[8:1],2-5[32:3],6,2,{16}8,,6,5,,5,7,,2-6[8:1],,5,,
{4}7>5[4:1],2h[4:1],{8},63,7-3[8:1],5,{16}4h[4:1],,,,2-8-6-4[16:4],,2,,,,3,,1,,1,,
{16}27,,1,4,3,7,5,,63,,8,4,6,1,4,,
{16}
2h[8:1]/6,,5,3,6p2[8:1],,8,,1-4[8:1]*-5[8:1],,,,,,,,
{16}
56,,3,4,1,,17,,35,,6,5,8,,28,,7,7,5,5,3,3,1>6qq8b[16:9],,,,,,,,,,{32},,,,,,,,,,{64}C,E1,{32},,,,,
{8}7bh[32:4],8,2h[8:1],{16}1,1,{8}7h[32:4],8,2h[8:1],1,
{4}6>3[16:2],2pp4[64:8],7-3b[8:1]*p3b[8:1],7x,
{8}2h[32:4],4,7h[8:1],{16}5,5,{8}2h[32:4],4,7h[8:1],5,
{32}7x/E6,E5,E4,,,,,,7x/E6,E5,E4,,,,,,8x/E6,E5,E4,,,,,,1x/E6,E5,E4,,,,,,
{8}3h[32:4]/8,5,6h[8:1]/1,{16}4,4,{8}3h[32:4]/8,5,6h[8:1]/1,{16}4,,
{8}7x/6x,B3/B5,7x/6x,B3/B5/B4,7x/6x,A5/A4/B3/A3/B5/B4,7x/6x,E5/A5/A4/B3/A3/B5/B4/E4,
{8}28,46,17,{16}3,3,{8}28,46,17,{16}35,,
{8}2h[4:1],3x,6h[4:1],7x,5w1b[8:1],5,{128},
B6/B4,,C,,,,
,,,,
,,,,
,,,,
,,,,
,,,,
,,,,,
{32}2/7b-3b[8:1],3x,4x,,8,,,,27,,,,1,,1,,2/7xb-3b[8:1],3x,4x,,8,,,,27,,,,1,,,,
{16}5,2,7,7,5h[8:1],,8,,76,,54,,32,,17,,
{32}6/2b-5b[8:1],5x,4x,,8,,,,62,,,,8,,8,,6/2xb-5b[8:1],5x,4x,,8,,,,62,,,,8,,,,
{12}57,6,6,24,3,3,{8}6v1[128:15]/4v1[128:15],82,,,
{32}8/3b-6b[8:1],7x,6x,,1,,,,83,,,,1,,1,,8/3xb-6b[8:1],7x,6x,,1,,,,83,,,,1,,,,
{16}7,4,5,5,1,,24,24,6h[8:1],,4h[8:1],,B3/E4,,B6/E6,,
{32}3/6xbq2b[8:1],2x,1x,,5,,,,36,,,,4,,4,,3/6xbq2b[8:1],2x,1x,,5,,,,36,,,,4,,,,
{4}5h[8:3],,2-5[32:3]/8-4[32:3],28,Ch[384:1],,
E
