&title=私、案山子。
&artist=あめのむらくもP/GUMI
&first=-0.015
&des=底に花
&lv_5=13
&inote_5=(130)
{1},
{16}4h[4:1]/5h[4:1],,,,,,6,,7h[4:1]/5h[4:1],,,,,,,,
{8}2h[4:1]/4h[4:1],,,3,5h[4:1]/4h[4:1],,,,
{8}6h[4:1]/5h[4:1],,,,4h[4:1]/2h[4:1],,,,
{8}3p6[4:1]/8,,6q3[4:1],,4,,5b,,
{16}3,5,3,5,3,,6,,75,,6,,2-5[8:1]/5,,,,
{16}8-4[8:1],,,,1,,,,2,4,3,4,2h[4:1],,,,
{16}5,,7,5,6,,81,,24,,3,,57,,6,,
{16}4b<6[8:1],,,,7bv4[8:1],,,,3b>8[8:1],,,,5b,,,,
{16}6,4,5,4,6,,3,,24,,3,,8<5[8:1]/5,,,,
{16}3qq1[8:1],,,,6,,,,78,,18,,1/2h[4:1],,,,
{16}6,,5,,4,,35,,6,,5,,4,,5/3h[8:1],,
{16}6,,35,,2,4,3,5,1w5[8:1],,,,,,,,
{16}34,,2,,1-4[8:1],,8,,7,,,,,,,,
{16}75,,8,,1-6[8:1],,2,,3,,,,,,,,
{16}5>2[8:1]/8,,7,,6,,5,,4<7[8:1]/1,,2,,3,,4,,
{16}5-1[8:1],,8,,7,,6,,5w1[8:1],,,,,,,,
{16}56,,7,,8z4[4:1],,1,,2-6[8:1],,,,,,,,
{16}24,,1,,8s4[4:1],,7,,6-2[8:1],,,,,,,,
{16}8-3[8:1],,4,,3,,2,,1-6[8:1],,5,,6,,7,,
{16}8>4[4:1],,,,4<8[4:1],,,,8w4[8:1],,,,,,,,
{16}3,,2,,1V36[4:1]/8,,7-2[8:1],,6,,,,,,,,
{16}6,,7,,8V63[4:1]/1,,2-7[8:1],,3,,,,,,,,
{16}1p4[4:1],,5,,6,,7,,8q5[4:1],,4,,3,,2,,
{16}1b>4[8:1],,,,6b<1[8:1],,,,3b<6[8:1],,,,8b,,,,
{16}7h[8:1],,8,7,1,1,6,6,2p4[16:3],,1,,7,,,,
{16}7-2[8:1],,8,,3-6[8:1],,4,,7-2[8:1],,8,,3,,4,,
{16}3h[8:1],,4,3,5,4,6,5,7qq7[16:3],,5,,3,,1,,
{12}2,4,3,7,8,6,3,4,2,6,8,7,
{16}2h[8:1],,1,2,8,8,3,3,7p4[16:3],,3,,1,,,,
{16}2-5[8:1],,5,,6-1[8:1],,1,,2-5[8:1],,5,,6,,1,,
{16}6qq3[2:1]/3<6[8:1],,,,,,,,2<7[8:1],,,,,,,,
{16}2b-5[8:1]/7b-1[8:1],,3b/6b,,,,,,2bv4[8:1]/6b<1[8:1],,5b/3b,,,,,,
{16}5/3<8[16:3],,,,23,,1,,3<8[16:3],,2,,1-4[8:1]/3,,,,
{16}2<6[8:1],,3,,4-8[8:1],,3,,2<6[8:1],,3,,4,,,,
{16}1p4[8:1]/7v5[8:1],,,,17,,,,7v4[8:1]/1q5[8:1],,62,,71,,,,
{16}3<8[16:3]/1h[4:1],,,,,,,,3<8[16:3]/1h[4:1],,,,,,,,
{16}4/6>1[16:3],,,,76,,8,,6>1[16:3],,7,,8-5[8:1]/6,,,,
{16}2<6[8:1],,3,,4-8[8:1],,3,,2<3[16:4],,3,,4,,,,
{16}8p4[8:1]*q5[8:1],,,,8,,,,1p4[8:1]*s5[8:1],,28,,1,,,,
{16}3bv5[8:1]/7bv5[8:1],,,,3bqq2>5[16:5]/7bpp8<5[16:5],,,,3b/7b,,,,,,,,
{16}6h[4:1],,5,,4,,3h[16:1],,6,,5,,4,,3h[16:1],,
{16}6h[4:1],,5,,4,,3,,2,,1,,8,,7,,
{16}6h[4:1],,5,,4,,3h[16:1],,6,,5,,4,,3h[16:1],,
{16}6h[4:1],,5,,4,,3,,3,,4,,5,,6,,
{16}45,,3,4,3,,5,4,5,,3,4,2,4,1,4,
{16}8,,1,8,1,,7,8,7,,1,8,2,8,3,8,
{16}4,,6,5,6,,4,5,4,,6,5,7,5,8,5,
{16}1,,2,3,4,,7,6,5,,1,2,3,,8,7,
{16}6h[4:1]/5V37[16:3],,,,,,,,5V37[16:3]/8h[4:1],,,,,,,,
{16}2-5[8:1],,4,,6-1[8:1],,8,,{16}2-5[8:1],,4,,6,,8,,
{16}1-5-3[16:3]/7h[4:1],,,,,,,,2h[4:1]/1-5-3[16:3],,,,,,,,
{16}2-7[8:1],,8,,6-3[8:1],,4,,2-7[8:1],,8,,6,,4,,
{16}7/8V25[16:3],,7,,7,,7,,4/8V25[16:3],,4,,4,,4,,
{16}3-8[8:1],,4,,6-1[8:1],,5,,3-8[8:1],,4,,6,,5,,
{16}43,,2,,18,,7,,65,,4,,3<6[8:1]/2,,1,,
{16}2q7[8:1],,,,1v8[4:13],,,,,,,,,,,,
{16}4h[4:3],,,,,,,,,,,,,,,,
{16}3h[4:3],,,,,,,,,,,,,,,,
{16}2h[4:3],,,,,,,,,,,,,,,,
{16}1b-3<4[8:1],,,,6b-8>1[8:1],,,,3b-5<6[8:1],,,,8b,,,,
{16}7/6>1[16:3],,,,8,,7,,6>1[16:3]/8,,7,,6/8p4[8:1],,,,
{16}2<6[8:1],,3,,5p1[8:1],,3,,2<6[8:1],,3,,4,,,,
{16}4z8[8:1]/5-1[8:1],,,,45,,,,1z5[8:1]/8z4[8:1],,27,,18,,,,
{16}3bv5[8:1]/7bv5[8:1],,,,3bqq2>5[16:6]/7bpp8<5[16:6],,,,3b/7b,,,,,,,,
{16}7,5,7,5,7,,4,,24,,3,,7/5-1[8:1],,,,
{16}5bv3[8:1]*v7[8:1],,,,5b>6[16:5]*<4[16:5],,,,5b,,,,,,,,
{16}5,,7,5,6,,81,,25,,3,,47,,6,,
{16}35,,6,4,8h[8:1],,4,6,2h[8:1],,4,2,6h[8:1],,4,,
{16}3,5,4,6,2,,7,,82,,17,,6pp8[8:1]/8,,,,
{16}2>5[8:1],,,,6,,,,35,,46,,5/7h[4:1],,,,
{16}6,,5,,4,,3,,75,,46,,35,,24,,
{16}1b/7b,,5,,2b/4b,,8,,7b/5b,,3,,1b/7bpp1<8>1-5[8:14],,5b/3bqq1>2<1-5[8:13],,
