&title=猪突猛進
&artist=百石元
&first=0.42
&des=心白-HW
&des_5=心白-HW
&lv_5=13+
&inote_5=(138){4}1b/8b,2h[4:1],6h[4:1],4h[4:1],
{16}6,5,{8}7,{16}3,4,{8}2,7h[8:1],{16}1,8h[8:1],,2,{8}1,
{16}3,4,{8}2,{16}6,5,{8}7-5v4[16:5],{2}1,
{16}2,1,{8}3,{16}6,5,{8}7,2h[8:1],{16}8,1h[8:1],,7,{8}8,
{16}6,5,{8}7,{16}2,1,{8}3,7,{16}E7,E3,,C,,,3,
5,4,5,2,5,4,5,3,5,4,5,{8}3/6,7/2,
{16}1,8,1,8,{8}1-5[8:1],2/7,{2}1<6[8:1]*>4[8:1],
{16}6,4,5,4,7,4,5,4,6,4,5,4,{8}6/3,2/7,
{16}8,1,8,1,{8}8-4[8:1],7/2,{2}8>3[8:1]*<5[8:1],
{16}2,4,3,4,1,4,3,4,8,4,3,4,{8}2/5,6/1,
{16}8,7,1,8,{8}2-6[8:1],1/3,{2}2<7[8:1]*>5[8:1],
{16}7,5,6,5,8,5,6,5,1,5,6,5,{8}7/4,3/8,
{4}1-5[8:1]/2-4[8:1],1/2,{8}6-8[8:1],5-1[8:1],6,5,
{16}8,7,{8}6,{16}2,3,{8}4,6,{16}4,5,,3,{8}4,
{16}3,2,{8}1,{16}5,6,{8}7,2,{16}8,1,,7,{8}8,
{16}1,5,{8}3h[8:1],{16}1,5,{8}7h[8:1],2,{16}4,3,,5,{8}6,
{16}8,4,{8}6h[8:1],{16}8,4,{8}2h[8:1],7,{16}6/3,5h[8:1]/4h[8:1],,,,,7/1,
2,3,4,8,1,2,3,7,8,1,2,{8}3/4,1/6,
{16}8,7,8,7,{8}8>2[16:1],8<6[16:1],{2}8-4[8:1],
{16}5,6,7,8,4,5,6,7,3,4,5,6,{8}7/8,5/2,
{16}3,4,3,4,{8}3-1[16:1],3-5[16:1],{2}3-7[8:1],
{16}8,7,6,5,7/4,6,5,4,3/6,5,4,3,{8}2/6,8/4,
{16}3,7,2,6,{8}1-5[8:1],5-1[8:1],{2}1-4[8:1],
{16}5,6,7,8,6/1,7,8,1,2/7,8,1,2,{8}3/7,8/4,
{4}5/1s5[8:5],{16}E8,,,E2,{8}E7,E3,E6,E4,
{16}5,6,4,7,5,6,4,7,{4}5w1[8:1],5b,
{16}4,3,5,2,4,3,5,2,{4}4w8[8:1],4b,
{16}1,5,2,6,3,7,4,8,3,7,2,6,{4}1>4[8:1],
1/8<5[8:1],8/1>4[8:1],1/8<5[8:1],{128}1V72-6-3-5>4V63-7-2-8>1<8b[16:11],8<8[128:87],{4},,,{16},,,{64},,,{4}Cf,
{8}4,5,4,{16}5,5,{8}4,5,4,{16}5,5,
{8}4,5,4,{16}5,5,{8}4,5,4,{16}5,5,
{8}4,5,4,{16}5,5,{8}4,5,4,{16}5,5,
{8}4,5,4,{16}5,5,{8}4,5,4,{16}5,5,
4,5,4,5,4,5,4,5,4,5,4,5,4,5,4,5,
4,5,4,5,4,5,4,5,4,5,4,5,4,5,4,5,
4,5,3,6,2,7,1,8,2,1,3,8,4,7,5,6,
4,7,3,8,2xh[4:1],{32}1x,8x,7x,6x,5x,4x,{16}3x,{32}1x,2x,{48}3x,4x,5x,6x,7x,8x,{32}5x,4x,3x,2x,1x,8x,7x,6x,
{16}5h[16:1],3h[16:1],8,8,6h[16:1],2h[16:1],8,8,7h[16:1],1h[16:1],8,8,{8}7/1,6/2,
{16}5,3,4,4,{8}4-8[8:1],5/3,{2}4w8[8:1],
{16}4h[16:1],6h[16:1],1,1,3h[16:1],7h[16:1],1,1,2h[16:1],8h[16:1],1,1,{8}2/8,3/7,
{16}4,6,5,5,{8}5-1[8:1],4/6,{2}5w1[8:1],
{16}3,7,3,7,2,8,2,8,1-3[12:1],1,1-7[12:1],1,{4}1,
{16}4,6,5,5,{8}5qq3[8:1],4/6,{2}5pp7[8:1],
{16}4,8,4,8,3,1,3,1,2,2,2,2,{4}2>6[16:3],
7<3[16:3],2>6[16:3],7<3[16:3],2,
{64}A2,D3,A3,D4,,,,,A7,D7,A6,D6,,,,,A2,D3,A3,D4,{16}A4,{64}A7,D7,A6,D6,{16}A5,{32}2x,3x,{16}4x,{32}7x,6x,{16}5x,{48}2x,3x,4x,5x,,,7x,6x,5x,4x,,,1x-5[8:1]/5x-1[8:1],
6x/2x,7x/3x,8x/4x,,,,,,,,,{4}1w5[8:1],{128},Cf,
E
