&title=白鸟过河滩
&artist=ilem
&first=0.05
&des="onyk"
&lv_5=13
&inote_5=(110)
{1},
{8}
6h[8:4],,,5,,,,,
3,4,5,6h[8:1],,7,,,
5,4,3h[8:2],,,2,,,
6/4h[8:2],5,3,,3/5h[8:2],4,6,,
3,4,5h[8:3],,,6,5,,
6/4,5,4,3h[8:2],,2,1,,
6,5,4h[8:3],,,3,4,,
3/5,4,5,6h[8:2],,7,8,,
6-4[8:1],6,3h[8:3],,,2,3,,
3-5[8:1],3,6h[8:3],,,7,6,5,
4pp2[8:4],,,,,1,1,,
8/2,,3,3/5,,5,6,6/4,
,5,6h[8:1],7-3[8:1],,5,5,,
5/3h[8:3],,2,2-6[8:1],,4,4,,
{16}
2<4[8:4],,2h[4:2],,,,,,,,,,,,,,
{8}
7,8/6,,1,2/8,,4,3/5,
,1,6,5,4qq2[8:1]*pp6[8:1],,,,
8h[8:3],,7,6,,6,5,4,7qq5[2:1]`3pp5[2:1],,,,,,,,
5/6,8,,2/4,1,,5/4,3/6,
{8},5,6h[8:2],7p3[8:1],8,2,2,,
{8}3h[8:1],2q6[8:1],,7,7,,8pp3[8:4]/7p4[8:4],,
{8}7/8,,,,,,4,6/2,
{8}1/7,,2,5,4,4h[8:1],3h[8:1],2,
{8}5V36[8:2]/1V72[8:2],,,,,5,1-5[8:1],3,
{8}6,7,6/4-7[8:1],2,3,1,2,1,
{8}6<4[8:6],,8>4[8:4],,2>4[8:2],,5>6[8:3],,
{8},,,,8^2[8:1],2^4[8:1],4>6[8:3],5,
{8},,,,2,8,6,1/5<7[8:1],
{8},2/5,3,4/5<8[8:1],,5/4qq5[8:4],,8/4,
{8},,7,,7,4,6,2,
{8}6<8[8:1]/4,7,6p4[8:3]/4,2q4[8:2],6/2,,,,
{8}8-6[8:1],,4-2[8:1]/8,,6-4[8:1]/4,,8V24[8:2]/6,,
{8}4V68[8:2]/8,,,,5,7/3,4,6/2,
{8}1V35[8:2],,5-1[8:2],,1V37[8:2],,7V53[8:2]*V13[8:2],,
{8},,,,1-3[8:1],3-5[8:1],5pp1[8:3]*qq1[8:3],7,
{8},,,,2,7,6,1/5<7[8:1],
{8},2/5,3,4/5<8[8:1],,5/4qq5[8:7],3,8qq1[8:5]/4,
{8},,,,,,,,
{8}7/1,6,7-3[8:1]/1,2,3-8[8:1]/7,,4/3,,
{8}8>4[8:2]/6,7,8/5,6,5<3[8:3],6,5/4,3,
{8}5<4[8:4],5,7/5,,6,7,8,1q7[8:2]*^3[8:1],
{8}3<7[8:1],,,,8<3[12:2]*p2[12:2],,8,,
{8}1<5[16:3],2,1/3,4>6[8:3],4,7,6>8[8:3]*p2[8:2],5,
{8},,,,8,1,6,8<5[8:1]/4,
{8},8/3,2,1/5<2[8:2],,2v4[8:2],,5>5[8:6],
{8},,,,,,,,
{8}1b,,,,7/1-3[12:1],6,7v4[8:1]/1,8,
7/3-8[8:1],,6V84[6:1]/3,,3^6[8:1],,3/7<3[8:1],,1-6[8:1]*-4[8:1]/7,,,,
7/3qq1[8:1],2,7qq5[8:1]/3,6,7/3^8[8:1],,5p1[8:1]/3,,5/2^7[8:1],,4>5[8:2]/2,,4,,
,,7/4-1[8:1],6,2/4>5[8:4],3,4/8^5[8:2],,,,,1,2/8,7>3[8:2]/3-7[8:1],
{8},7/3<1[8:3],,,,5,,8/2,
{8}1^6[8:1]*p5[8:1],,1^4[8:1],,1/7p5[2:1],8,7/3q5[8:2],,
{8},,,,7,6,5,4,
{8}3<2[8:20],,,,,8,7,6,
{8},3,,4,,5,,6p3[8:5],
{8},,,,,,,,
{8}4h[8:3]/6h[8:3],,,,3h[8:3]/5h[8:3],,,,
{8}4^7[8:4],,,,,,,,
{8}4^6[8:4],,,,{16},,,,,,{48},,,6,5<4[48:74],,
{8}3>4[8:12],,,,,,,,
&inote_6=(110)
,,,,
{8}
6h[8:4],,,B5,,,,,
3,4,5,6h[8:4],,4,,,
5,4,3h[8:3],,,B4,,,
6/4,5,3,,3,5,,,
3,4,5h[8:4],,,B6,,,
6/4,5,4,3,,3,4,,
6,5,4qq5[8:2],,,,,,
5,,5,4,,4,5,,
6-4[8:1],6,3h[8:3],,,2,3,,
3-5[8:1],3,6h[8:3],,,7,6,5,
4pp2[8:4],,,,,1,1,,
2/8,,3,4/2,,4,5,3/6,
,5,6h[8:1],7-3[8:1],,5,5,,
5/3h[8:3],,2,2-6[8:1],,4,4,,
{16}
2,,2h[4:2],,,E8,B8,B7,C,,,,,,,,
{8}
7,8/6,,1,2/8,,4,3/5,
,1,6,5,3-7^5-3[4:2],,,,
,,,,,4,5,6,7qq5[2:1]`3pp5[2:1],,,,,,,,
5/6h[8:1],,,2h[8:1]/4,,,3/4h[8:1],,
,,7,6,5,6,5,4h[8:3],,,3,4pp7[2:1],,1,,,
{1}
,,,,,,,,,,,,,,,,,,,,,,,,,
{8}
1,,,,7-5[12:1]/1-3[12:1],,7v4[8:1]/1,,
7/3-8[8:1],,6V84[8:1]/3,,3^6[8:1],,3/7<3[8:1],,8-5[8:1]*-3[8:1],,,,
7qq5[8:1]/3pp5[8:1],,7^2[8:1]/3,,7/3p6[8:1],,5^2[8:1]/3,,7/5^8[8:1],,5w1[8:1]/3,,,,
,,5^2[8:1]*^8[8:1],,5w1[8:1],,5,,
7/3-1[8:1],,7-4[8:1]/3,,7/1^6[8:1],,1/3p7[8:1],,3/5^2[8:1],,1w5[8:1],,1pp6[2:1]*qq4[2:1],,,,,,,,,,
1,
