&title=燐寸と緞帳
&artist=Juka_Box; 綜花
&first=0.023
&des=shaXkyD
&lv_5=14
&inote_5=(76)
{2},
{32}1hb[16:1],,,,7,5,6,4,8>4p8[16:5],,3,4,6/5h[16:1],,8,,
{4}8b,E6f/B6/B5,
{32}7x,5,7,5,6,4,5x,3,4x-7>8-5[4:1],2,4,2,5,3,5,3,
{4}4b,A3f/E3/E4,
{32}2v5[16:1],,6-8[16:1],,1,8,1,8,2>5s1[4:1]b,,6,,1,,,,
{16},,,
{48}7,6,5,
{4}4b/A1f,
{32}8-4[16:1],2,7,2,6,2,
{48}5x,6x,7x,
{16}8x/1-5[8:3]b,3,46,7,
{32}1x,,E8,,,E3,,,E7,,,E4,,,E6,,
{4}C1f,,,4h[4:1],
{16}7V53[16:3],,2,,,1,1,8,8V64[16:3],,,7,,8,8,7,6V82[16:3],4,3h[8:1],,,4,5,5-1[16:1],,,,,
{4}A8/E8,
{16}3V57[16:3],,8,,,1,1,2V46[16:3],,,1,1,,,8,8,
{32}1V35[16:3],,,E8/B7,,,Ch[4:3],,
{16},,,,,,,,,3,2,1-5[16:1],
{32}1b,,3,4,
{16}3,1/6<1[16:1],,,2,2-5[16:1],,2,3,2,,6,7q5<2[4:1],7,
{16}4h[16:3],,7,,,,3,4,
{32}5h[8:3],,,1h[32:9],,,,,
{16},,,4/8>5[8:1],
{32}37,,6/5h[8:1],,,,
{16}8x,,,2,1s5[8:1],
{32}15,,2,4,3,,1x,,,,,,
{48}7,,,7b,6x,5x,
{2}4hx[16:7]/Ch[16:7],
{24},E6,E4,E5,,,
{32},,5h[32:3],,,6h[32:3],,,
{32}7hb[16:1],,4,6,3,5,2,4,1,,
{16}7hb[64:1]/8h[64:1],4hb[128:1]/6h[128:1],2h[256:1]/7hb[256:1],
{32}E3,B3,E7,B7,2hb[16:3],,4,,
{48}3w7[16:1]b,4,5,6,7,8,1x/2x,,,,,,
{64}3b,Cf,,,,,,,
{32}1,7,2,8,3q1[8:1],5,2,4,
{24}1<4[8:1],3x,1x,
{8}3x,2,3-8[16:1],4,
{32}3<6[16:1]/4,,5,5,2,,2h[16:1],,3v1[32:3],,1,1-3<4-8[32:5],
{16}7,2,
{32}3,,,7,,,6h[16:3],,
{16},,,4,
{32}5qq1[16:3]/7,,8,2,8h[8:1],,3,,5,,
{16},,5,
{32}2/4pp8[16:3]b,,1,7,1h[8:1],,6,,4,,2,,,3,,,
{32}3h[8:1],,,,7,,6,,5h[16:1]/1V75V31[32:7]b,,3,4h[16:1],,2,3h[16:1],,1,,,Cf,,,
{16},,7h[8:1],2,3,
{32}4bz8[8:1],6,3,5,2,6,3,7,4x,,
{16},6,6h[8:1],,2,3,4h[8:1]/6pp1[16:3],,6,5,6>3[32:3]b,,,5,6,,,7,8h[16:1],
{32}5,6,2b,4,3,6b,4,5,1b-3<5-7[16:3],4,2,7b,1,8,1,8,
{32}1,,,D8,,,B7,,,,6h[16:6],,
{16},,E2f/D2,,,B4/B3f,,2,2,1,
{32}8>4[32:3]b,,7,5,6h[16:1],,7,,8b,,
{96}A5,D6,A6,D7,A7,D8,A8,E1f/D1/A1,,,,,,,,,,,
{16}5h[8:1]/3,3,2,1,1-6[16:1],16,17,
{32}18,,1bx/7hx[32:3],,5x,5hx[32:4],,,4x,4hx[32:15],,3x,3x,,,,,,2x,,,,,,
{32}1b,1,7,4,6h[16:1],,2,2,6,3,5h[16:1],,4,4,6,6,
{48}4,3,2,
{32}1/7bp1p5[32:5]b,,,28,,,E3/E4/A3f,,,,,,,,
{32}2,2,5,5,1h[16:1],,7,7,4,5,3h[16:1],,8h[32:1],
{64}2,3,4,5,8,7,6,5,
{32}1-6[16:1],1,6<8v3[8:1]b,6,3,5,2,6,1,,5hx[16:1],,,,,
{32}6b,6,2,8,1h[16:1],,7,7,3,1,2h[16:1],,8,8,3,3,
{48}7,6,5,
{32}4/2bv4>3-8[32:5]b,,,35,,,E7/B7f/A7,,,,,,,,
{32}5,5,2,2,7h[16:1],,3,3,6,2,5h[16:1],,1,6,6,
{64}2,3,4,5,,
{32}7,7,5,6,2,1,
{64}3<6[16:1]b,,,,,,,,2x/8hx[8:1],,,,,,,,3b,,,,,
{16},,,7<4[8:1],8,1,2,3>8[8:1],2,2,2,5-1[16:1],6,6h[16:1],,5-7>8[8:1],,,,
{16}4>1[8:1]/5,3,3,3,7v4[8:1],6,6,6,1pp5[4:1]b,2,2,2,5,6,7,8,7,
{32}6h[16:1],,3,5h[32:3],,,2q6[16:1],,,1,8,,1,,2/7-4[16:1]b,,,,5,,6,,78,,
{16},,,
{32}E4f,,8h[256:1],2,4,3,6,1,B6f,,1h[256:1],7,2,8,4,6,E2f,,
{24}57,8hx[256:1],8hx[255:1],1hx[256:1],
{32}2/E8f,,3h[256:1],3,8,2,7,7,6bx/E3f,5,4,3,2,1,8,7,6/E1f,5,4,3,2,1,8,7,
{8}6x/B1f,3x/5x,1b<8<7<6>5>4>3>2<1<8-5>4-1[8:7]b/Cf,,,,,,,,,
(152)
{8},,,,,,
(76)
{1}2>3qq6[2:3]/6<7qq2[2:3],
{16},,,,,,,,,,,,,,,5-1[8:1],6h[16:3]/5,,,,,,,4-8[8:1],4/3h[16:3],,,,
{32},,3,,,2,,,1-5[16:1],,2b/4b,,7,8,7-4[16:1],,1b,,8,8,2h[2:1],,7b,,
{8},,,
{96}6x,E6,B5,B4,E4,,
{32}2,2,5v8[16:1],,1b/7b,,2,4,3-7[16:1]b,,5b,,4,4,6,,3b,,,,,,,,
{32}E6,,E2,,,E3,,,D8,,
{8}Ch[8:7]f,,,6,5,6,7-2[16:1]b,8,
{32}7b<4[16:1],,4,4,1,2,8,1,7>1[16:1],,3,3v5>4p8[32:5]b,,6,2h[16:1],,7,,,3,,,6h[16:3],,,,,,
{16}2,3>8[16:1],
{32}46,,7h[32:1],5,,,
{96}7b/3b,,6,,5,A8f,
{16}4h[8:1],,1,6<1[16:1],53,
{32}2h[32:1],4,,,
{96}6b/2b,,3,,4,A1f,
{32}5h[32:3],,,8h[16:1],,2,6h[16:1],,1-5[16:1],,
{32},,5,6,7,8,1/2pp5[4:1]b,,,3h[16:1],,8,8h[16:1],,2,,,E8f/A7,
{8},
{16},7,8,8,
{32}4b/7,3,2,1,78,6,5,4,1x-5[16:1],3x,
{16}1hx[8:1],4,4,1,6,7,2-4[16:1]/8,,7,1,2-8[16:1],5x,
{32}5,4,6,,2>5[16:1],,8x,,8,1,7,,2,,
{32}6,6,
{64}3b,4,5,,8hx[32:1],,2b,3,4,,,,8b,7,6,,1hx[32:1],,7b,6,5,,
{32}2hx[32:1],4,3,4hb[16:1],,
{32}2,2,5,,1,,,,8/7h[32:13],,,,,,
{96},E2f,B1,B8,E8,,
{32},,,,
{96}A2f,E3,B3,B4,,,
{16},6,6,7,8h[16:1],
{32}2>5[16:1]b,1,2,,7,,6,,
{48}6b,7,8,
{16}1h[8:1],4,3,2h[256:1]/8h[256:1],1h[128:1]/7h[128:1],1h[128:1]/7h[128:1],5h[64:1]/6h[64:1],3h[48:1]/4h[48:1],2h[32:1]/7h[32:1],1/8h[2:1],
{16},,,,,,,
{64}2bx<4[16:13]*<4[16:13],E3,B3,B4,E5f,
E
