&title=BLUE BACK
&artist=じん; 初音ミク
&first=-0.635
&des=「青」が 聴こえる
&lv_5=14
&inote_5=(199)
{1},,,
{2},{32}4?qq4[19.85#1024:101],4?pp4[19.95#1024:100],,,,,,,,,,,,,,,
{1},,,,
{4}1pp1[1:1],,,,
{8},7^4[8:5],,,,,,,
{1}8V64-2[2:3],,
{1}1-4[1:1],
{8},,,,E8,E1,E2,,
{8}4/3,,3/4,,3,6,3,5h[8:3],
{8}3,,3,,3,5,4,,
{8}5/6,,6,3,6,,6,4,
{8}6,5h[8:3],6,,6,,5,,
{8}7b/3b,,6/4,,3,5,2,4,
{8}1-4b[8:1],,1-6b[8:1],,1-5b[8:1],,1,,
{8}2b/8b,,5,5,6/4h[8:1],6,3/7h[8:1],3,2h[8:1]/8,8,1h[4:1],,6,{16}3,4,2<7[16:3]<4b[16:3],6,5,7<7[16:8],
{8}2b/Cf,,,,,,,,
{8}5-3[8:1]*-1[8:1],,5,,2-4[8:1]*-6[8:1],,2,,
{8}5-1[8:1],7-4[8:1],5,7,,8^5[8:1],1,2,
{8}3-8[8:1],4-7[8:1],3,4,,,3/5,,
{8}8-6[8:1],5-1[8:1],8,5,,4^7[8:1],1,2,3-1[8:1],8-4[8:1],3,8,,2,4,3,
{8}6-1[8:1],5-2[8:1],6,5,,8^5[8:1],5,8,
{8},1^4[8:1],4,1,8,{16}5,6,5,,7,,
{8}1/8,,1,,1/7-5[8:1],,3,3,
{8}4-8[8:1],,2-4[8:1],,7,,5-1[8:1],,
{8}6,,7,7-5[8:1],8,,1,1<5[4:1],
{8},2,,,2,2,4,4,
{8}5/3,,3>7[4:1],,7>3[4:1],6,6,5h[8:3],
{8},,4,,3-8[8:1],3,5,,
{8}7^5[8:1],,3,3>7[4:1],,,4,4>5[8:3],
{8},,C,,E1,E2,E3,E4,
{8}6/5,,6,,6/4-2[8:1],4,8-4[8:1],8,
{8},,1-5[8:1],,7-1[8:1],,4,,
{8}3^1[8:1],,7,7<3[4:1],,,8,8<1[8:3],
{8},1,,,7,7,5,5,
{8}4/6,,2,,6,3,5,4h[8:3],
{8},,6-4[8:1],,2-6[8:1],,8,,
{8}4>5[8:3],,5,5,,,8,8,
{8}3x,{16}3,4,{8}2,5,5/1,1,2/6,6,
{8}7^4[8:3]/3,,,4^1[8:3],,,1^6[8:3],,
{8},,5,,3,5,4,5,
{8}2^5[8:3]/6,,,5<8[8:3],,,8^3[8:3],,
{8},,,,{16}6,5,6,5,7h[8:3],,C,,
{8},8-4[8:1],1,2/8b,,2-6[8:1],3,4/2b,,4-8[8:1],5,6/4b,,7,1,8,
{8}6/2,4,3/7,5,6/2,4,3h[4:1]/7h[4:3],,
{16},,,,,,,,{32}2bx,1x,8x,7x,6x,5x,4x,3x,2x,1x,8x,7x,6x,5x,4x,3x,
{8}2-7[8:1]/6-3[8:1],,2b/6b,,,1,2-8[8:1]/5,6,
{8}7-3[8:1]/2,,7/1,2V48[16:3],,2,6,5,
{8}8v3[8:1]/4-7[8:1],,8b/4b,,,2,8-6[8:1]/3,4,
{8}5-1[8:1]/8,,5/7,8V62[16:3],,8,3,4,
{8}5<3[4:1],,4,,6-1[8:1],,5,5,6-2[8:1],,8,8<5[8:1],,1,2,3,
{8}4/6-1[8:1],,6/4,3-8[8:1],,3/5,5,,
{8}8/7,1,8/7,1,8/7,1,{32}7x,6x,5x,4x,3x,2x,1x,8x,
{8}7-2[8:1]/3-6[8:1],,7b/3b,,,8,7-1[8:1]/4,6,
{8}2-6[8:1]/7,,2/8,7V51[16:3],,7,3,4,
{8}1-6[8:1]/5v2[384:47],,1b/5b,,,7,1-3[8:1]/6,8,
{8}4-8[8:1]/1,,4/2,1V37[16:3],,1,6,5,
{8}4>6[4:1],,5,,3-8[8:1],,4,4,3-7[8:1],,1,1>4[8:1],,8,7,6,
{8}5/3-8[8:1],,3/5,6-1[8:1],,6/4,3,,
{8}8/2,3,1/7,6,2/8,2-6[8:1]/3s7[8:1],,,
{8}A7/D7/E7f/A6,,,1h[8:5]/5,,,,,
{8}7,8,6,2,1,3,5,4,3/7h[4:1],,1,2/8,,5h[8:3]/6,,,
{8}7,1,8,3,4,2,6,5,
{8}4h[8:3]/8,,,8h[8:5],,,,,
{8}2,1,3,7,8,6,4,5,6/2h[4:1],,8,7/1,,4h[8:3]/3,,,
{8}2,8,1,6,5,7,3,4,
{4}5/1,C,C,C,
{4}C,C,C,C,
{4}C,C,C,C,
{4}C,C,C,C,
{4}C,C,C,C,
{4}C,C,C,C,
{4}C,C,C,C,
{4}C,C,C,C,
{4}1x/8xp3^6[1:1],1,1,1,
{4}2,2,2/5,3/6,
{4}8/4qq5[1:1],8,8,8,
{4}7,7,7/5,6/4,
{4}3-1[8:1]/5,5,6-8[8:1],4,
{4}5-1[8:1],6,4-8[8:1],3,
{8}2b/6b,,8/7,8/7,1/6,1/6,2/5,2/5,
{8}3/4,3/4,3-1b[8:1]/4,,4b,{16}8b/A1f,7,6,5,4,3,
{16}8bx-4[8:1]/2bx,,,,5-7[8:1],,,,3,,,,8,,3,4,
{16}2h[8:1],,6,5,7h[8:1],,2,1,3h[8:1],,7,8,6h[8:1],,5,,
{8}4-8[8:1]*-1[8:1],,4,,5h[8:1],6h[8:1],7h[8:1],8h[4:1],
{16},,2,,1,,2,3,4,5,7,,6/8,,6/8,,
{8}1/5-7[8:1],,5-3[8:1]/4,,5-8[8:1]/6,,5-2[8:1]/4,,
{8}5-1[8:1]/6,,5/4,,2^5[8:1],,2h[4:1],,
{8}7h[8:1],5h[8:1],4h[8:1],2h[8:1],4h[8:1],3h[8:1],2h[8:1],8V62[16:3],
{8},8/5,4,3,8,8h[8:1],{32}3,4,5,6,7,8,1,2,
{8}3-1[8:1],4,3,7-4[8:1],8,7,2-6[8:1],1,
{8}2,8^3[8:1],7,6,5^8[8:1],4,3,2,
{8}1x,1x,B3,8x,8x,B6,4x/5x,4x/5x,
{8}C,E2/A2,E6/A6,E4/A4,{32}E8/A8,D1,D2,D3,D4,D5,D6,D7,D8/Chf[2:1],,,,,,,,
{24},,,,,,{32}8bx,7x,6x,5x,4x,3x,2x,1x,8x,7x,6x,5x,4x,3x,2x,1x,8x,7x,6x,5x,4x,3x,2x,1x,
{16}8hx[16:3],,,6h[16:3],,,5,,1h[16:3],,,3h[16:3],,,4,,
{8}5/7,5,5,8/3,8,8,1/6,1,
{8}1,8/4,8/4,8/4,8/4,1/5,1-5b[8:1]/5,1/5,
{1}1/5,,,
{8},,,,,,1/8,1/8,
{8},3h[8:1],4h[8:1],2,,6h[8:1],5h[8:1],7,
{8},2,1,3h[4:1],,5,4,6,
{8}1/7,,7,8/2,,1/8,1/8,,
{16}3/7,,,3/7,,,3/7,,4/8,,,4/8,,,4/8h[8:9],,
{1},
{16}1b,,3,4,2,,8b,,6,5,7,,1,8,2,7,
{8}1w5b[8:1],,{384}1b,Cf,,,,,,,,,,,,,,,,,,,,,,,,,,,,,,,,,,,,,,,,,,,,,,,{8},,2,8-6[8:1]/3,1,
{8}5-1-3[16:3]/8,,5/7,8V62[16:3],,8,3,4,
{8}5<3[4:1],,4,,6,,5-1[8:1],6,7-3[8:1]/5,,8/7,1<6[8:1],,1,2,3,
{8}4/6-1[8:1],,6/4,3-8[8:1],,3/5,6,,
{8}8/7,1,8/7,2,8/7,3,{32}7x,6x,5x,4x,3x,2x,1x,8x,
{8}7-2[8:1]/3-6[8:1],,7b/3b,,,8,7-1[8:1]/4,6,
{8}2V48[16:3]/7,3,2/8,7V51[16:3],,7,3,4,
{8}1^6[8:1]/5^2[8:1],,1b/5b,,,7,1-3[8:1]/6,8,
{8}4-8-6[16:3]/1,,4/2,1V37[16:3],,1,6,5,
{8}4>6[4:1],,5,,3^8[8:1],,4,5,6-2[8:1],,8/6,1>4[8:1],,1/8,7,6,
{8}5/3-8[8:1],,3/5,6-1[8:1],,6/4,3,,
{16}1/8,,3,4,2,,6,5,7,,1,8,1-5[8:1],8,1,8,
{385}1-7[8:1],Cf,,,,,,,,,,,,,,,,,,,,,,,,,,,,,,,,,,,,,,,,,,,,,,,,,,,,,,,,,,,,,,,,,,,,,,,,,,,,,,,,,,,,,,,,,,,,,,,{8}1/6-2[8:1],,4qq1[8:3],,8,8,
{8},,2/8,,1/2,2,8-4[8:1],1,
{8}8-2[8:1],,8/3-7[8:1],,5pp2[8:3],,1,1,
{8},,3/1,,4/3,4,2-4[8:1],5,
{8}2^7[8:1],,2/6-2[8:1],,5,,1^6[8:1],1,
{8}5,,4-8[8:1],4,5,,2V86[16:3],2,
{8}6,,5-1[8:1],5,4,,3,8,
{8}2,4,7,5h[4:1],,{16}3,,4^1[8:1],5,4,5,
{8}4-7[8:1],,4/8-3[8:1],,5pp4[8:3],,4,4,
{8},,3/5,,4/3,3,5<8[8:1],4,
{8}5-2[8:1],,5/1-6[8:1],,4qq8[8:3],,8,8,
{8},,1/7,,7/8,7,1,{16}6/2,5/3,
{8}4,,5/7-3[8:1],,8/7,,2<3[4:1],2,
{8}8,,1-6[8:1],8,1/7,,5,4,
{16}3/6,,2,4,3,7,5h[4:1],,,,6-2[8:1],,7,,8h[8:3]/6,,
{8},4,4,,1/3,,8/6,,
{1}4>5[1:3]/5,,,
{8},,,,,1-5[8:1]/5,1/5,1b/5,
E
