&title=透明エレジー
&artist=n-buna
&first=0.006
&des=Tane
&freemsg=n-buna
&wholebpm=
&des_1=Tane
&des_2=Tane
&des_3=Tane
&des_4=Tane
&des_5=Tane
&lv_1=1
&lv_2=3
&lv_3=5
&lv_4=7
&lv_5=13
&inote_1=(110)
{1},
{2}3h[4:1],,
{2}3h[4:1],,
{2}6h[4:1],,
{2}6h[4:1],,
{4}2,,,,
{4}4,,,,
{1}4^1[2:1],
{4}8,,,,
{4}7,,,,
{4}5,,,,
{1}5^8[2:1],
{4}1,,,,
{2}8,,
{1}7-3[2:1],
{2}2,,
{4}4,,,,
{2}5,,
{1}6-2[2:1],
{2}3,,
{4}1,,,,
{1}8^5[2:1],
{4}3,,,,
{1}1^4[2:1],
{4}6,,,,
{4}1,,,,
{4}1,,,,
{4}3,,,,
{4}4,,,,
{4}8,,,,
{4}8,,,,
{4}6,,,,
{4}5,,,,
{4}1,,,,
{2}5,,
{4}5,,,,
{2}1,,
{4}1,,,,
{4}2,,,,
{2}4,,
{4}3,,,,
{1}2^5[2:1],,
{4}7,,,,
{4}1,,,,
{1}7^4[2:1],
{4}3,,,,
{4}4,,,,
{2}78,,
{8},,,,
,,,,
{4}1,,,,
{4}2,,,,
{4}3,,,,
{4}2,,,,
{4}8,,,,
{4}7,,,,
{4}6,,,,
{4}7,,,,
{4}27,,,,
{4}3,,,,
{4}1,,,,
{1}1^4[2:1],
{4}5,,,,
{4}6,,,,
{4}8,,,,
{1}8^5[2:1],
{4}4,,,,
{1},,,,,,,,
&inote_2=(110)
{1},
{2}3h[4:1],,
{2}3h[4:1],,
{2}6h[4:1],,
{2}6h[4:1],,
{4}2,,,,
{4}4,,,,
{1}4^1[2:1],
{4}8,,,,
{4}7,,,,
{4}5,,,,
{1}5^8[2:1],
{4}1,,,,
{2}8,,
{1}7-3[2:1],
{2}2,,
{4}4,,,,
{2}5,,
{1}6-2[2:1],
{2}3,,
{4}1,,,,
{1}8^5[2:1],
{4}3,,,,
{1}1^4[2:1],
{4}6,,,,
{4}1,,1,,
{4}1,,8,,
{4}3,,5,,
{4}4,,2,,
{4}8,,8,,
{4}8,,2,,
{4}6,,4,,
{4}5,,7,,
{4}1,,,,
{2}5,3,
{4}5,,,,
{2}1,7,
{4}1,,,,
{4}2,,,,
{2}4,2,
{4}3,,,,
{1}2^5[2:1],6,
{4}7,,7,,
{4}1,,,,
{1}7^4[2:1],
{4}3,,,,
{4}4,,3,,
{2}78,,
{8},,,,
,,,,
{4}1,,1,,
{4}2,,1,,
{4}3,,5,,
{4}2,,5,,
{4}8,,8,,
{4}7,,8,,
{4}6,,4,,
{4}7,,4,,
{4}27,,45,,
{4}3,,,,
{4}1,,,,
{1}1^4[2:1],
{4}5,,,,
{4}6,,,,
{4}8,,,,
{1}8^5[2:1],
{4}4,,,,
{1},,,,,,,,
&inote_3=(110)
{1},
{2}3h[4:1],4,
{2}3h[4:1],4,
{2}6h[4:1],5,
{2}6h[4:1],5,
{4}2,,2,,
{4}4,,4,,
{1}4^1[2:1],
{4}8,,6,,
{4}7,,6,,
{4}5,,5,,
{1}5^8[2:1],
{4}1,,3,,
{2}8,6,
{1}7-3[2:1],
{2}2,4,
{4}4,,2,,
{2}5,7,
{1}6-2[2:1],
{2}3,1,
{4}1,,3,,
{1}8^5[2:1],
{4}3,,3,,
{1}1^4[2:1],
{4}6,,6,,
{4}18,,18,,
{4}12,,78,,
{4}34,,56,,
{4}45,,27,,
{4}81,,81,,
{4}87,,21,,
{4}65,,43,,
{4}54,,72,,
{4}1,,3,,
{2}56,34,
{4}5,,7,,
{2}12,78,
{4}1,,8,,
{4}2,,7,,
{2}45,27,
{4}3,,6,,
{1}2^5[2:1],6h[2:1],
{4}7,,87,,
{4}1,,3,,
{1}7^4[2:1],
{4}3,,6,,
{4}45,,34,,
{2}78,,
{8},,,,
,,,,
{4}18,,18,,
{4}28,,17,,
{4}34,,56,,
{4}24,,57,,
{4}81,,81,,
{4}71,,82,,
{4}65,,43,,
{4}75,,42,,
{4}27,,4h[4:1]/5h[4:1],,
{4}3,,3,,
{4}1,,1,,
{1}1^4[2:1],
{4}5,,7,,
{4}6,,6,,
{4}8,,8,,
{1}8^5[2:1],
{4}4,,2,,
{1},,,,,,,,
&inote_4=(110)
{1},
{2}3h[4:1],4h[4:1],
{2}3h[4:1],4h[4:1],
{2}6h[4:1],5h[4:1],
{2}6h[4:1],5h[4:1],
{4}2,,2,3,
{4}4,,4,3,
{1}4^1[2:1],
{4}8,7,6,,
{4}7,,7,6,
{4}5,,5,6,
{1}5^8[2:1],
{4}1,2,3,,
{2}8,6,
{1}7-3[2:1],
{2}2,4,
{4}4,3,2,,
{2}5,7,
{1}6-2[2:1],
{2}3,1,
{4}1,2,3,,
{1}8^5[2:1],
{4}3,3,3,,
{1}1^4[2:1],
{4}6,6,6,,
{4}18,2,18,7,
{4}12,3,78,6,
{4}34,2,56,7,
{4}45,,27,27,
{4}81,7,81,2,
{4}87,6,21,3,
{4}65,7,43,2,
{4}54,,72,72,
{4}1,2,3,4,
{2}5h[4:1]/6h[4:1],3h[4:1]/4h[4:1],
{4}5,6,7,8,
{2}1h[4:1]/2h[4:1],7h[4:1]/8h[4:1],
{4}1,1,8,8,
{4}2,2,7,7,
{2}45,2h[4:1]/7h[4:1],
{4}3,4,6,8,
{1}2^5[2:1],6h[2:1],
{4}7,7,87,,
{4}1,2,3,4,
{1}7^4[2:1],
{4}3,45,6,45,
{4}45,,34,,
{2}78,,
{8},,,,
,,,,
{4}18,3,18,6,
{4}28,4,17,5,
{4}34,1,56,8,
{4}24,5,57,4,
{4}81,6,81,3,
{4}71,5,82,4,
{4}65,8,43,1,
{4}75,4,42,5,
{4}27,,4h[4:1]/5h[4:1],,
{4}3,,3,2,
{4}1,,1,2,
{1}1^4[2:1],
{4}5,6,7,,
{4}6,,6,7,
{4}8,,8,7,
{1}8^5[2:1],
{4}4,3,2,,
{1},,,,,,,,
&inote_5=(110)
{1},
{16}3h[16:3],,,4h[16:3],
,,2,,
1h[16:3],,,8h[16:3],
,,2,,
{16}3h[16:3],,,4h[16:3],
,,2,,
1h[16:3],,,7h[16:3],
,,8,,
{16}6h[16:3],,,5h[16:3],
,,7,,
8h[16:3],,,1h[16:3],
,,7,,
{16}6h[16:3],,,5h[16:3],
,,7,,
1b/8b,,,,
,,,,
{16}5h[8:1],,3,3,
,3,4,3,
7,8,7,,
1h[8:1],,8,8,
{16}2^5[8:1],,1,,
8,,7,7,
,,18,,
12,,3,4,
{16}2,,5^8[8:1],4,
,,,,
,3,1,2,
7,8,6,,
{16}1h[4:1],,5,5,
5-2[8:1],,7,,
5,,8-5[8:1],,
2,,8,,
{16}4h[8:1],,6,6,
,6,5,6,
2,1,2,,
8h[8:1],,1,1,
{16}7^4[8:1],,8,,
1,,2,2,
,,81,,
87,,6,5,
{16}7,,4^1[8:1],5,
,,,,
,6,8,7,
2,1,3,,
{16}8h[4:1],,4,4,
4w8[8:1],,2,,
4b,,,,
,,7,,
{8}8^5[4:1],3,4,3,
1,8,7,6,
{8}5^8[4:1],,,4,
3,2,1,8,
{8}7-4[4:1],,,2,
3,,,2,
{8}3/5V71[4:1],4,3,4,
2,,,6,
{8}5^8[4:1],2,1,2,
4,5,6,7,
{8}8^5[4:1],,,3,
4,5,6,7,
{8}8-5[4:1],,,1,
2,,,1,
{8}2/8V64[4:1],1,2,1,
3,,,3,
{8}8<3[4:1],,,2,
1-5[8:1],1,8-4[8:1],8,
{8}3-1[8:1],3,7-5[8:1],7,
1,,2,3,
{8}4>7[4:1],,,6,
5-1[8:1],5,4-8[8:1],4,
{8}7,6,57,3,
24,7,68,2,
{8}1b-6[8:1]/8b,7,2/1-4[8:1],3,
1-6[8:1]/8,6,1-4[8:1]/2,4,
{8}1-6[8:1]/8,5,2/1-4[8:1],5,
1-6[8:1]/8,7,1/2,3,
{8}4^7[8:1]/5,6,3/4^1[8:1],2,
4^7[8:1]/5,6,4^1[8:1]/3,2,
{8}4^7[8:1]/5,8,3/4^1[8:1],8,
4^7[8:1]/5,6,4/3,,
{8}8-3[8:1]/1,2,7/8-5[8:1],6,
8-3[8:1]/1,3,8-5[8:1]/7,5,
{8}8-3[8:1]/1,4,7/8-5[8:1],4,
8-3[8:1]/1,2,8/7,6,
{8}5^2[8:1]/4,3,6/5^8[8:1],7,
5^2[8:1]/4,3,5^8[8:1]/6,7,
{8}5^2[8:1]/4,1,6/5^8[8:1],1,
5/4,,2h[8:1]/7h[8:1],,
{16}1,,2,,
3,,4,4h[8:1],
,8,8h[8:1],,
{32}1,2,3,4,
8,7,6,5,
{16}3,4,3,4,
1,,8,2,
6,5,6,5,
8,,17,,
{16}3h[16:3],,,1h[8:1],
,2,1,3,
6,5,7,18,
,8,1,7,
{32}1,2,3,4,
{16}8,8h[16:1],
{32}4,3,2,1,{16}7,7h[16:1],
2,6,3,45,
,4,3,2,
{16}16,7,8,7,
38,2,1,2,
{32}8h[32:3],,,1,8,,2,,
{16}6,6,4,4,
{32}8h[32:3],,,1,
8,,2,,{16}4,4,6,6,
7,3,4,1,
6,5,8,,
{16}4h[8:1]/5h[8:1],,,,
,,,,
1h[8:1]/2,2,2,,
7h[8:1]/8,8,8,,
{16}6,6,5,5,
4,4,3,3,
7-3[8:1],,1V35[8:1],1,
7b,,1b,,
{16}6h[16:5],,,,
,,6,,
57,,,,
,,4,5,
{16}3h[16:5],,,,
,,3,,
24,,,,
,,28,,
{16}1h[16:5],,,,
,,1,8,
2,,7,,
7,,7,8,
{16}71,,2,,
2,,3,4,
35,,6,,
6h[4:1],,,,
{16}7h[16:5],,,,
,,7,,
68,,,,
,,1,8,
{16}2,,3,4,
2,,8,1,
7,,6,5,
7,,36,,
{16}4h[16:5]/5h[16:5],,,,
,,3,4,
2,,2h[4:1],,
,,6,4,
{16}8,,8h[8:1],,
1,,1,7,
3,5,1,,
18,,18,1b/8b,
{8},,,,
,45,36,27,
{8}1b-6[8:1]/8b,7,2/1-4[8:1],3,
8-5[8:1]/1,7,8-3[8:1]/2,1,
{8}7-4[8:1]/8,6,7/3-8[8:1],1,
4-7[8:1]/3,6,4/3,2,
{8}8^3[8:1]/1,2,7/8^5[8:1],6,
1^4[8:1]/8,2,1^6[8:1]/8,5,
{8}4^1[8:1]/1,3,5/4^7[8:1],8,
4^1[8:1]/3,2,4/5,,
{8}8-3[8:1]/1,2,7/8-5[8:1],6,
1-4[8:1]/8,2,1-6[8:1]/7,8,
{8}2-5[8:1]/1,3,2/6-1[8:1],8,
5-2[8:1]/6,3,5/6,7,
{8}1^6[8:1]/8,7,2/1^4[8:1],3,
8^5[8:1]/1,7,4^1[8:1]/8,2,
{8}5^8[8:1]/4,7,4/5^2[8:1],1,
5/6,7,18,27,
{16}27,,3,3,
6,6,4,5,
3z7[8:1]/6s2[8:1],,,,
,,,,
{16}4,4,5,3,
,2,1,2,
8,1,8,,
8h[8:1],,5^3[8:1],5,
{16}8-5[8:1],,5,,
8,,1,1,
,,13,,
68,,1,4,
{16}3,,5^8[8:1],4,
,,,,
,4,1,2,
7,8,5,,
{16}1h[8:1],,6^3[8:1],6,
3-7[8:1],,2-8[8:1],,
,,,,
7,,12,,
{16}5,5,4,6,
,7,8,7,
1,8,1,,
8h[8:1],,5^2[8:1],5,
{16}8-5[8:1],,5,,
8,,1,1,
,,86,,
31,,8,5,
{16}6,,4^1[8:1],5,
,,,,
,5,8,7,
2,1,4,,
{16}8h[8:1],,3^6[8:1],3,
6,,3,,
1,,7-2[8:1],,
8,,2b/7b,,
{16},,,,
,,,,
,,,,
,,,,
{8},,,,
,,,,{8},,,,
,,,,{8},,,,
,,,,
{1},,,,,,,,
