&title=イナンナの见た梦
&artist=Zwei
&first=0.13
&des=LTCalter
&clock_count=4
&lv_5=13
&inote_5=(145.93)
{1},
(146)
{4}1bs5[8:11],,,,,,,,
{4}3bqq8[8:11]*-7[8:11],,,,,,,,
{4}1bs5[8:11]/7b-3[8:11],,,,,,,,
{4}2bqq4[8:11]/5bpp4[8:11],,,,,,,,
{16}4,5,4,5,3,6,4,5,2,7,1,8,2b/7b,,,,
{16}18,,3,4,3,,25,,3h[8:1],,4h[8:1],,5h[8:1],,6,,
7-5[8:1],,7,,4-2[8:1],,4,,7v4[8:1],,8,,17,,,,
81,,6,5,6,,74,,6h[8:1],,5h[8:1],,4h[8:1],,3,,
2-4[8:1],,2,,5-7[8:1],,5,,2>5[8:1],,1,,82,,,,
65,,3,4,3,,54,,7h[8:1],,5h[8:1],,4h[8:1],,2h[8:1],,
5-8[8:1],,6,,2-5[8:1],,3,,7-5[8:1]*-4[8:1],,8,,7,,,,
21,,7,8,7,,18,,2h[8:1],,4h[8:1],,5h[8:1],,7h[8:1],,
1-5[8:1],,2,,6pp2[8:4],,7,,,,,,,,,,
{4}3h[8:8],,,,5h[8:8],,,,
4>6[8:12]*>6[8:12],,,,4pp6[8:4],,,,
{8}3h[8:4],,,4,5,,64,,
7h[8:4],,,5,3,,24,,
1V38[16:5],,5,5h[8:3],,,1,2,
{16}3h[16:3],,,4h[16:3],,,5,,5w1[16:3],,,,,,,,
43,,2,,43,,5,,3,3,4,,24,,1,,
8-3[8:1],,7,,6,,5,,4-7[8:1],,3,,2,,1,,
87,,6,,87,,1,,7,7,8,,18,,2,,
3h[8:1],,4,,6,5,,54,,3,4,,2,1,,87,
6^3[8:1],,7,,8,,1qq5[8:3],,,,2,,2,,2,,
3^6[8:1],,2,,1,,8V24[16:5],,,,7,,7,,6,,
5,,6-2[8:1],,7,,6/8-4[8:1],,,,8/3-7[8:1],,,,3/1-5[8:1]*-6[8:1],,,,1,,,,4,,
6/8,,1,7,2-5[8:1],,31,,
2q8[8:4]/6q4[8:4],,,,,,,,,,,,,,
15,,,,37,,,,3h[8:4],,,,4,,5,,6,,
7-3[8:1],,,,1s5[8:2],,,,6,,6,,7,,
7V53[8:2],,,,3,,2,,1,,8-4[8:1],,,,,,,,
{8}4/3,2,43,5-7[8:1]/4,,3-5[8:1],,8-4[8:1],,2,1-3[8:1],1-7[8:1],1-5[8:1],,,,
5/6,7,56,4-2[8:1]/5,,6-4[8:1],,1-5[8:1],,7,8^6[8:1],8^2[8:1],8-4[8:1],,,,
{16}56,,7,,65,,3,4,2-5[16:2]/1,,8,,7,,6,,
43,,2,,34,,6,5,7-4[16:2]/8,,1,,2,,3,,
65,,65,,34,,34,,76,,76,,23,,23,,
6,75,,3,24,,7,86,,2,13,,1,8,1,8,
2,2,6-2[8:1],,3,,8,8,,,27,,1b/8b,,1b/8b,,
2,4,3,,3V15[8:2],,38,8h[16:5],,,,,,,8,,
7,5,6,,5V73[8:2],,51,1h[16:5],,,,,,,2,,
6V84[8:2],,5,,4,,3,,2V48[8:2],,1,,8,,7,,
6<3[8:3],,5,,4h[8:2],,,,,,,,45,,6,,
2b^5[8:1]/1,,,1,2,,8,,6b^1[8:1]/5,,,5,6,,4,,
3b-8[8:1]/4,,,4,3,,5,,7b-4[8:1]/8,,,8,7,,1,,
21,,3,4,3,,26,,1-5[8:1],,7-4[8:1],,1,,7,,
3b,,,2b/8b,,,1b/7b,,6b/5b,,7,,4,4,5,5,
3,5,4,,6/4V26[8:2],,47,8h[16:5],,,,,,,8,,
7,5,6,,4/6V84[8:2],,63,2h[16:5],,,,,,,2,,
4>1[8:1],,5,,6,,7,,8<5[8:1],,1,,2,,3,,
4-6[8:1],,6<2[8:2],,7h[8:2],,,,,,,,54,,3,,
2b-5[8:1]*-5[8:1]/1,,,1,2,,8,,6b-1[8:1]*-1[8:1]/5,,,5,6,,4,,
3V16[8:2]*V16[8:2],,3,,6V83[8:2]*V83[8:2],,6,,8h[8:2],,,,,,7-4[8:1],,
2,,3-8[8:1],3,,6,6,,7,,85,,2-6[8:1]/3-7[8:1],,14,,2b/3b,,,,,,6,6,5,5,4,4,3,3,2,2,
1b,,8-4[8:1],2,7,,8/2-6[8:1],,,,2/7-3[8:1],,,,7/1-5[8:1],,,,
1/5w1[8:2],,,,5,,,,,,2b/7b,,,,
{16}81,,6,5,7,,28,,8h[8:1],,6h[8:1],,4h[8:1],,2h[8:1],,
8,1,8,1,7,2,6,3,45,,75,,24,,81,,
18,,3,4,2,,71,,1h[8:1],,3h[8:1],,5h[8:1],,7h[8:1],,
1,8,1,8,2,7,3,6,{32}4,5,6,7,8,1,2,3,4w8[16:3],,,,4!w8[292#16:6]*w8[292#16:6],,,,
{8}4b<4[8:5]`4?>4[8:5],,,,,,,,
{16}17,,6,5,6,,3,4,2v5[8:1],,6-1[8:1],,2,,6,,
2,,34,,7,,65,,3h[8:1],,1h[8:1],,8h[8:1],,6,,
3,5,3,5,2,5,3,5,8,4,3,4,6-1[8:1],4,3,4,6bpp1[1:2]*-2[1:2],
