&title=ジングルベル
&artist=SEGA Sound Team
&first=0
&des=KorinEkoはラビ欲し
&lv_4=50
&lv_5=100
&lv_6=200
&inote_4=(50)
{4}
,
{32}
78,1,8,18,2,1,12,3,2,,
{48}
3,2,1,
{24}
7b,7b,7b,
{32}
6,,3,,7,,2,,
6,1,7,3,7,2,5,1,
8,,7,,1,,2,,
8,1,7,2,6,3,5,4,
1,,2,,8,,7,,
4,5,3,6,2,7,1,8,
2,2,7,7,4,4,8,8h[32:4],
,,,,
{128}
1,2,3,4b,,,,,
{32}
,,
1,1,6,6,3,3,8,8,
1,5,2,6,3,7,4,8,
7,7,4,4,5,5,2,2,
8,4,7,3,6,2,5,1,
7,2,3,6,8,5,4,1,
84,8,83,8,82,8,81,8,
8/1h[32:8],8,6,6,5,5,4,4,
3,,
{128}
5,6,7,8b,,,,,
{16},,
1>4[32:1],8<5[32:1],1-4[32:1],8-5[32:1],
1b-5[32:1],8b-4[32:1],1b-6[32:1],8b-3[32:1],
1b>4[32:1],8b<5[32:1],1b,8b,1b,,
{32}
24,25,24,25,
1,1,5,5,2,2,6,6,
4,8,3,7,4,8,3,7,
15,26,37,48,48,37,26,15,
4h[32:2]/8h[32:2],,
{128}
,,15,26,37,4b/8b,,,
{16}
,,
8<5[32:1],1>4[32:1],8-5[32:1],1-4[32:1],8b-4[32:1],1b-5[32:1],8b-3[32:1],1b-6[32:1],
8b<5[32:1],1b>4[32:1],8b,1b,8b,,
{32}
75,74,75,74,
7,3,7,3,6,2,6,2,
5,1,5,1,4,8,4,8,
73,84,15,26,37,48,51,62,
7h[32:2]/3h[32:2],,
{128}
,7b/3b,62,51,48,73,62,51,48,7b/3b,,,
{32}
,,,2b/7b,,,,,,,,,,,,
2b/7b,,,,
7h[32:2],1,3,8,6h[32:2],2,3,4,
4h[32:7]/8,8,7,7,8,8,7,7,
2h[32:2],8,7,1,3h[32:2],7,6,5,
5h[32:7]/1,1,2,2,1,1,2,2,
4h[32:2],7,6,3,5h[32:2],2,3,6,
3h[32:7]/5,5,4,4,5,5,4,4,
1>4[32:1]/5,15,26,26,37,37,48,48,1b/5,,,,
{128}
8,7,6,5b,
{32}
,,,
2h[32:2],6,6h[32:2],1,1h[32:2],8,8h[32:1],7,
6h[32:7]/1,8,1,8,1,8,1,8,
4h[32:2],8,8h[32:2],3,3h[32:2],2,2h[32:1],1,
8h[32:7]/3,2,3,2,3,2,3,2,
3h[32:2],2,2h[32:2],1,1h[32:2],8,8,8,
8h[32:7]/7,6,7,6,7,6,7,6,
8<4[32:2]/7,67,56,45,34,23,21,18,
8b/1,,,,
{128}
1,2,3,4b,
{32}
,,,
34,5,4,45,6,5,56,7,6,
2h[32:3],,,6,
2h[32:3],,,
{48}
8,,8,7,,7,1,,1,7,8,7,
2,,2,1,,1,3,,3,8,1,8,
2,,2,1,,1,8,,8,7,,7,
6,7,6,8,7,8,1,2,1,3,2,3,
7,,7,6,,6,5,,5,4,5,4,
5,,5,6,,6,7,,7,8,7,8,
1>4[32:1],,2,3,,4,5,,6,7,,8,
{32}
1b,,,,
{128}
8,7,6,5b,
{32}
,,,
{48}
1,,1,7,,7,3,,3,8,3,8,
2,,2,5,,5,4,,4,8,1,8,
2,,2,6,,6,4,,4,8,,8,
7,8,7,1,8,1,1,2,1,3,2,3,
4,,4,5,,5,6,,6,8,7,8,
7,,7,5,,5,3,,3,2,1,2,
3,4,3,5,6,5,2,3,2,7,6,7,
2,1,2,8,7,8,3,2,3,6,7,6,
4,5,4,6,7,6,8,1,8,2,3,2,
1>4[32:16]*-4[32:1],7,2,8<5[32:14]*-5[32:1],2,7,
1>4[32:12]*-5[32:1],8,7,8<5[32:10]*-4[32:1],1,2,
{16}
1>4[32:8]*-6[32:1],8<5[32:6]*-3[32:1],
1>4[32:4]*-4[32:1],8,1,8,1,
{32}
,
1b/8b,,,,,,,,,
{32}
48,15,26,3h[32:2]/7h[32:2],,,
{256}
3b/7b,26,15,48,37,26,15,48,3b/7b,
&inote_5=(100)
{4},,
{16}4b/5b,,,1b/3b,,,6b/8b,,,,
{32}1,8,1,8,{48}2bx/7bx,36,45,{16},,,
{8}3h[8:1]/4,5,6h[8:1]/5,4,{16}3h[8:3]/4,4,4,4,4,4,4,,
{8}6h[8:1]/5,4,3h[8:1]/4,5,{16}6h[8:3]/5,5,5,5,5,5,5,,
{8}4h[8:1]/5,6,5h[8:1]/4,3,{16}45,45,45,45,45,45,45,,
{16}2h[16:1]/7,7,6h[16:1]/3,3,4h[16:1]/5,5,5h[16:1]/4,4,36,36,36,36,36,36,36,,
{8}5h[8:1]/4,B8,4h[8:1]/5,B1,{16}45,5,5/B4`B3,5,5/E7`B7,5,5/E2`D2,,
{8}3h[8:1]/4,B7,6h[8:1]/5,B2,{16}34,3,3/E5`B5,3,3/B1`E1,3,3/B7`A7,,
{16}56,56,45,45,34,34,45,,
{48}62,3,4,6,,,61,2,3,6,,,86,1,2,6,,,{8}7b/6b,
{64}16,2,3,4,7,,,,38,7,6,5,2,,,,16,2,3,4,7,,,,38,7,6,5,2,,,,{16}1h[4:1]b,,{96}4,5,6,7,8,,2,3,4,5,6,7,{4}8b,
{48}1-4[16:1]/8,7,6,{16},{48}8-5[16:1]/1,2,3,{16},{48}1-5[16:1]/8,7,6,{16},{48}8-4[16:1]/1,2,3,{16},{48}1-6[16:1]/8,7,6,{16},{48}8-3[16:1]/1,2,3,{16},{48}1-5[16:1]/8,7,6,{16},{48}8-4[16:1]/1,2,3,{16},{48}1-4[16:1]/8,7,6,{16},{48}81,2,3,{16},{48}18,7,6,{16},,
{16}12,12,,6b,6,5b,5,4b,4,
{16}3-6-4-7[16:3],3,12,12,2,2,2,2,
{16}3-7-4-6[16:3],3,18,18,1,1,1,1,
{16}2,2,37,37,48,48,15,15,2h[16:3]/6h[16:3],,,{64},15,48,37,{4}2b/6b,
{8}1>3[16:1],{48}1/4,5,6,{16},{8}1/8<6[16:1],{48}8/5,4,3,{16},{8}1>4[16:1]/8,{48}1/4,5,6,{16},{8}8<5[16:1]/1,{48}8/5,4,3,{16},{8}1-5[16:1]/8,{48}1/4,5,6,{16},{8}18,
{16},18,18,,3b,3,4b,4,5b,5,
{16}6-2-5-3[16:3],6,78,78,7,7,7,7,6-2-5-1[16:3],6,18,18,8,8,8,8,
{16}7,7,26,26,35,35,4,4v2-4-8[16:2]*v6-4-8[16:2],4b,,,,{4},,,1xb/8xb,
{4}8h[4:4]b/1h[256:1]b,{8}5,1,5,1,5h[4:1]b,,,58,4h[4:3]b/1,5,1,5,1h[4:1]b,,,14,
{8}5h[4:3]b/8,4,2,6,8h[4:1]b,,,58,
{8}1h[16:1]b/4h[16:1]b,5h[16:1]b/7h[16:1]b,1h[16:1]b/2h[16:1]b,4h[16:1]b/5h[16:1]b,2b-5p8[8:1]b/6b-1p4[8:1]b,,,,
{48}5h[4:3]b/2b,B2,,{16},{48}8,B8,,{16},{48}2b,B2,,{16},{48}8,B8,,{16},{64}2b,3,4,,6,7,8,1,2b,3,4,,6,7,8,1,2b,3,4,5,6,7,8,1,{8}2b/6b,
{48}4h[4:3]b/7b,B7,,{16},{48}1,B1,,{16},{48}7b,B7,,{16},{48}1,B1,,{16},{64}7b,6,5,,3,2,1,8,7b,6,5,,3,2,1,8,7b,6,5,4,3,2,1,8,{8}3b/7b,
{48}5h[4:3]b/2b,3,4,{16},{48}8b,7,6,{16},{48}2b,3,4,{16},{48}8b,7,6,{16},{64}1b,2,3,4,,6,7,8,1b,2,3,4,,6,7,8,1b,2,3,4,5,6,7,8,1b,2,3,4,5,6,7,8,1b/5b,2,3,4,5,6,7,8,1b/5b,2,3,4,5,6,7,8,1b/5b,2,3,4,5,6,7,8,1b/5b,2,3,4,5,6,7,8,
{4}1h[4:1]b/5h[4:1]b,{64},26,37,48,15,,,,{8},{48}8b/4b,3,2,{16}8,8,{48}1b/8b,7,6,{16}1,1,{48}5b/1b,2,3,{16}5,{16}5h[16:1],{64},46,37,28,{8},
{16}1h[16:1],{64},28,37,46,{8},
{8}5<8[16:1],1>4[16:1],5,1,7q4[8:1],{16}4>1[12:1],4,,,,,
{8}5>3[16:1]b,1<7[16:1],5v2[16:1]b,1v6[16:1],5V38[16:1]b,1V74[16:1],5,1,
{8}2h[8:1],4h[8:1],{48}1b,8,7,{16},{8}5h[8:1],{48}8b,1,2,{16},{8}6h[8:1],{48}4b,3,2,{16},{8}5,{48}E3,B3,B4,{16},{48}E8,B7,B6,{16},{48}A3,D3,A2,{16},{48}A7,D8,A8,{16},{64}A1,B1,C,B5,A5,,,,{8},
{64}A5f,E5/E6,B5/B4/B6,B3/B7/C,E8/B8/B1/B2/E3,E1/E2/A1/A2/A8/D1/D2,,,{8},
{8}4>1[16:1],8<5[16:1],4,8,1q6[8:1],{16}6>3[12:1],6,{4},
{8}7-4b[16:1],7-2[16:1],7s3-5-7b[16:6]*z3-1-7[16:6],,{4},,
{8}6h[8:1],5h[8:1],8h[8:1]b,1h[8:1],4h[8:1],3h[8:1],1h[8:1]b,2h[8:1],{48}A8f,D8,A7,D7,A6,D6,A5,D5,A4,D4,A3,D3,A2/6b,D2,A1,D1,A8,D8,A7,D7,A6,D6,A5,D5,A4f,D4,A3,D3,A2,D2,A1,D1,A8,D8,A7,D7,A6/2b,D6,A5,D5,A4,D4,A3,D3,A2,D2,A1,D1,A8f/4,5,6,7,8,1,2,3,4,5,6,7,B4/8b,1,2,3,4,5,6,7,8,1,2,3,4/B8f,5,6,7,8,1,2,3,4,5,6,7,8b/B4,1,2,3,4,5,6,7,8,1,2,3,
{16}4b/8b,8,,2,2b,,37,,{24}1b,1,1,1,1,1w5[16:1],1,1,1,1,,1b,,,,,,,{4},
{64}35,,,,,46,,,3>8[16:1]/7<4[16:1],,,,,4h[64:10]b/8h[64:10]b,,,{4},,,,,,,
E
&inote_6=(200)
{4}
,,,,
{32}8/4,7,6,5,{8}3,2,
{32}1/5,2,3,4,{8}6,7,
{32}8/4,7,6,5,{8}3,2,,
{16}1-3[8:1],2,8-4[8:1],7,1b-5[8:1],,8b-6[8:1],,1b,,8b,,
{8}
3,3,1,1,4,4,8,8,2,2,2,2,2,2,2,2,
6,6,2,2,5,5,1,1,7,7,7,7,7,7,7,7,
4,4,8,8,1,1,7,7,3,3,3,3,3,3,3,3,
1,1,18,18,12,12,17,17,3,3,3,3,3,3,3,3,
5,5,5,3,3,3,7,7,17,17,17,17,17,17,17,17,
2,2,2,8,8,8,4,4,46,46,46,46,46,46,46,46,
5,5,5,5,5,8,8,3,3,3,3,3,1,1,1,1,
28,28,28,28,28,28,28,28,5b>3[8:1]/6b<1[8:1],,5b/6b,,6b<8[12:1]/5b>2[12:1],,56,,
1>4[12:1],1,1b/8<5[8:1],8,8b/1>4[12:1],1,1b/8<5[8:1],8,8b/1>4[12:1],1,1b/8<5[8:1],8,8b/1>4[12:1],1,1b/8<5[8:1],8,8b/1>4[12:1],1,1b/8<5[8:1],8,8b/1>4[12:1],1,1b/8<1[6:1],8,8b/1b,,
78,78,78,78,78,78,
6,6,68,6,26,6,46,6,56,5,15,5,75,5,35,5,
15,15,84,84,37,37,26,26,1>5[8:1]/5<1[12:1],,15,,{32}48,37,26,15,48,,,,
{4},
{32}8-3[12:1]/1b,7,6,5,{8},{32}8b/1-6[12:1],2,3,4,{8},
{32}8-3[12:1]/1b,7,6,5,{8},{32}8b/1-6[12:1],2,3,4,{8},
{32}8-3[12:1]/1b,7,6,5,{8},{32}8b/1-6[12:1],2,3,4,{8},
{32}8-3[12:1]/1b,7,6,5,{8},{32}8b/1-6[12:1],2,3,4,{8},
{32}8-3[12:1]/1b,7,6,5,{8},{32}8b/1-6[12:1],2,3,4,{8},
{32}8-3[12:1]/1b,7,6,5,{8},{32}8b/1>8[6:1],2,3,4,{8},1b/8b,,12,12,12,12,12,12,
38,38,38,38,47,47,47,47,16,16,16,16,25,25,25,25,
18,18,18,18,18,18,18,18,4b/5b,,{32}27,36,45,36,27,18,27,36,{4}4b/5b,
,,,,,,,,,
{8}
1,1,1,1,1,1,1,1,1/5b,1/5b,1/5b,1/5b,1/5b,1/5b,1/5b,1/5b,
7,7,7,7,7,7,7,7,7/3b,7/3b,7/3b,7/3b,7/3b,7/3b,7/3b,7/3b,
2,2,2,2,2,2,2,2,4b/8b,4b/8b,4b/8b,4b/8b,4b/8b,4b/8b,4b/8b,4b/8b,
2b/7b,2b/7b,2b/7b,3b/6b,3b/6b,3b/6b,4b/5b,4b/5b,4b/5b,,,,1bx/8bx,,,,
{8}5,5,5,5,5,5,5,5,{24}5b/1x,,,5b,1x,,5b,,1x,5b,,,5b/1x,,,5b,1x,,5b,,1x,5b,,,
{8}3,3,3,3,3,3,3,3,{24}3b/7x,,,3b,7x,,3b,,7x,3b,,,3b/7x,,,3b,7x,,3b,,7x,3b,,,
{8}6,6,6,6,{6}2b,2b,2b,{8}4,4,4,4,{6}8b,8b,8b,
{8}1,1,{12}6,6,6,{8}4,4,{12}7,7,7,
{24}3,4,5,6,7,8,{32}1,2,3,4,5,6,7,8,1b,2b,3b,4b,5b,6b,7b,8b,{4}1b,
{32}8/4,7,6,5,{8}3,2,
{32}1/5,2,3,4,{8}6,7,
{32}8/4,7,6,5,{8}3,2,
18,,,7,18,,,
{12}
2-4[16:1],,2,8-6[12:1],,8,1-5[8:1],,1,5,,6,
7-5[16:1],,7,1-3[12:1],,1,8-4[8:1],,8,4,,3,
2-6[8:1],,2,1-5[12:1],,1,8-4[16:1],,8,7,,7,
{24}2bx,3,8bx,7,3bx,4,7bx,6,1bx,2,6bx,5,2bx,3,8bx,7,4bx,5,7bx,6,1bx,2,6bx,5,
{12}3,4,3,6,5,6,3,4,3,7x,8x,7x,2,1,2,7,8,7,2,1,2,6x,5x,6x,
{16}3,4,2,5,3,4,2,5,3,4,3,5,2,4,3,5,2,,,,,,,,
{32}37,48,51,26,37,,,,{4},
{12}
7-5[16:1],,7,1-3[12:1],,1,8-4[8:1],,8,4,,3,
2-4[16:1],,2,8-6[12:1],,8,1-5[8:1],,1,5,,6,
7-3[8:1],,7,8-4[12:1],,8,1-5[16:1],,1,2,,2,
{32}3,4,5,6,7,8,1,2,3,4,5,6,7,8,1,2,3,4,5,6,7,8,1,2,3,4,5,6,7,8,1,2,
{12}3x,5,3,6x,4,6,2x,5,2,7x,4,7,1x,5,1,8x,4,8,2x,3,4,7x,6,5,
{8}
1-5[8:1],1,2-6[8:1],2,3-7[8:1],3,4-8[8:1],4,5-1[8:1],5,6-2[8:1],6,7-3[8:1],7,8-4[8:1],8,1,2,37,37,26,26,15,15,48,48,
{32}37,8,1,2,3,2,1,8,1,2,3,4,5,6,7,8,1,2,3,4,5,6,7,8,
{32}2x,1x,2x,1x,2x,1x,2x,1x,3x,8x,3x,8x,3x,8x,3x,8x,4x,7x,4x,7x,4x,7x,4x,7x,5x,6x,5x,6x,5x,6x,5x,6x,5bx,6x,5x,6x,5x,6x,5x,6x,5bx,6x,5x,6x,5x,6x,5x,6x,
{32}4b,3,2,1,8,7,6,5,4b,3,2,1,8,7,6,5,
{8}4b,8b,3b,7b,2b,6b,1bw5b[50#24:1],5b,2b/8b,3b/7b,4b/6b,5b,,,1b,,
E
