&title=【二向箔】恋色マスタースパーク
&artist=上海アリス幻樂団
&first=0
&des=一轮游也够
&lv_5=14+
&inote_5=(169.01)
{16},,,,,,,,,,,,,,,,
2bq5[4:3]/6b,,,,,,,,6,,,,,,,,
7p4[4:3],,,,,,,,3,,,,,,,,
2qq5[8:5],,,,5,,,,6,,,,7,,,,
7pp4[4:2],,,,4,,,,3,,,,2,,{24}2x,3,4,
{16}6b/5b,,,,7/5,,6,,5-3[8:1]/3,,2,,1-5[8:1],,,,
6,,6,,7/4,,3,,5-2[8:1]/2,,1,,1-5[8:1],,,,
7x,,,,6/4,,3,5,3<5[8:1],5,3,,6,,6,,
7x,5,7,5,6x,4,6,4,7x,3,8,2,7x,1,6,2,
5b-3[8:1],,6,,7h[4:1],,,,1-5[8:1],,2,,3h[4:1],,,,
4<7[8:1]*>2[8:1],,3/5,,,,,,1xh[4:1],,{24}8x,7,6,{16}5,,2x/4x,,
1-5[8:1],,8,,7h[4:1],,,,4<7[8:1],,3,,2h[4:1],,,,
8-6[8:1]*-3[8:1],,7/1,,,,,,5xh[4:1],,{24}1x,2,3,{16}4,,6x/5x,,
7-3[8:1],,8,,1h[4:1],,,,4>1[8:1],,5,,6h[4:1],,,,
8-6[8:1]*-4[8:1],,7/1,,,,,,3xh[4:1],,{24}7x,6,5,{16}4,,5x/2x,,
1<6[8:1],,8,,7h[4:1],,,,5>2[8:1],,,,3h[4:1],,,,
8-5[8:1],,,,2-6[8:1],,,,4,,,,3,5,3,5,
2bpp5[8:3],,,,6,,6h[4:1],,,,,,4,,6,,
3/7qq3[8:3],,,,1,,1h[4:1],,,,,,4q1[8:1],,5,,
6p4[8:3],,,,2,,2h[4:1],,,,,,1>4[8:1],,8,,
6<4[4:1],,,,5,,5h[4:1],,,,,,6,4,6,4,
7b-3[8:1],,,,4-1[8:1],,,,7-3[8:1],,7,,5-8[8:1],,5,,
6-2[8:1],,,,1-4[8:1],,,,6,,6,,3,5,3,5,
2-6[8:1],,,,8-5[8:1],,,,3,,3,,4/2,,5,,
{24}7/4,6,5,2,3,4,{16}5/8,,,,7b-3[8:1]/4b,,1/8,,7/4-1[8:1],,5,,
8x>3[8:1],,7,,5<8[8:1]/8,,,,5qq6[4:1],,4,,7,,7,,
8q4[8:1],,1,,5<8[8:1],,,,1-4[8:1],,2,,3,,3,,
5x>2[8:1],,6,,8<5[8:1]/5,,,,8pp7[4:1],,1,,6,,6,,
5p1[8:1],,4,,8<5[8:1],,,,4-1[8:1],,3,,2,,2,,
8x>3[8:1],,7,,5<8[8:1]/8,,,,5qq6[4:1],,4,,7,,7xh[4:1],,
,,5,,6/4,,3,,2>5[8:1]/5,,1,,6-2[8:1],,7,,
1x<6[8:1]/6,,3,,4>1[8:1]/1,,,,4pp3[4:1],,5,,2,,2,,
1p5[8:1],,8,,6-2[8:1],,,,8-5[8:1],,8,,6-2[8:1],,6,,
1x<6[8:1],,3,,4>1[8:1]/1,,,,4pp3[4:1],,5,,2,,2,,
1,,5/2,,6,,4/7,,3,5,2,,8/1p4[8:1],,6,,
5x>2[8:1],,7,,8<5[8:1]/5,,,,8pp7[4:1],,1,,6,,6xh[4:1],,
,,8,,7/1,,2,,6,4,5,2,4,3,6,5,
7b-3[8:1]b,,1/8,,7/5p1[8:1],,,,7bv4[8:1]/5b,,8-3[8:1]b,,7,,8,,
5b,,6/4,,7,5,6,4,5,3,6,4,7,2,5,3,
8xqq4[4:3],,,,,,,,2h[64:1],,,,,,,,
3q5[4:3],,,,5,,,,6h[64:1],,,,7,,,,
8qq3[8:5],,,,4h[64:1],,,,3h[64:1],,,,2h[64:1],,,,
1q3[4:2],,,,4h[64:1],,,,5h[64:1],,,,6h[64:1],,{24}7x,6,5,
{16}4b/3b,,,,2/5,,3,4,3,4,3-6[8:1],,5,,6,,
7h[4:1],,,,1,,2,4,3-7[8:1]*-5[8:1],,,,,,,,
4x/6x,,,,7/4,,6,5,6,5,6,,7/4,,3/8,,
2,1,2,1,3,8,3,8,4,7,5,6,4,5,3,4,
2b,,5/3,,6,5,7,,3,5,4,,7/5,,6,4,
5h[16:5],,6,,4,,5/3,,2h[4:1],,3,,1,2,1,2,
8x,,7/1,,6,8,7,,1,8,2,,3/4,,6,5,
7h[16:5],,8,,6,,7/5,,4h[4:1],,3,,5,4,5,4,
6bx,,7/5,,4,5,3,,6,5,7,,8/4,,3,4,
2h[16:5],,1,,3,,2/4,,6h[4:1],,8,,5,6,5,6,
4b,,5/3,,2,4,3,,6,5,8,,7/3,,6,4,
5h[16:5],,7,,4,,2/5,,1h[4:1],,3,,8,1,7,2,
6b/3b,,,,,,7/4,,2/5,,,6/3,,,7,2,
{32}8,7,6,5,4,3,2,1,8,7,6,5,4,3,2,1,8,7,6,5,4,3,2,1,8,7,6,5,4,3,2,1,
{16}8b-3[8:1]/4b-7[8:1],,6/2,,8<5[8:1]/4,,,,8qq2[4:1]/2,,1,,4,,4,,
5p1[8:1]b,,7/3,,8p4[8:1]/5,,,,2p6[8:1]b/8,,1,,5>2[8:1],,7,,
8b-3[8:1],,6,,5<8[8:1]/8,,,,5pp2[4:1]/2,,4,,1,,1,,
8q4[8:1],7,6/1,,8/5,,6,,8q4[8:1]/5,7,6-2[8:1]/2,,4/8,,6,,
5b<8[8:1],,4,,5/2>5[8:1],,,,2/8qq3[4:1],,1,,4,,4,,
2,,8/4,,1,3,2,5,4,6,2,4,3,6,5,7,
1bp5[8:1]b,,2,,1/4<7[8:1],,,,4pp2[4:1]/2,,3,,8,,8,,
7p2[8:1]b,,6,,1<7[8:1],,,,3p6[8:1]b,,2,,5>3[8:1],,7,,
8b-4[8:1],,6,,5<8[8:1]/8,,,,3/5pp2[4:1],,4,,1,,1,,
8q4[8:1]b,7,6/1,,8/5,,6,,8q5[8:1]b/5,7,6-2[8:1]/2,,4/8,,6,,
4b-1[8:1]b*-7[8:1]b,,8,,4bx,,,,7xh[32:1],5h[32:1],6xh[32:1],3h[32:1],4xh[32:1],
2h[32:1],{32}8x,7,6,5,
{16}3h[32:1],4h[32:1],2xh[32:1],8h[32:1],5xh[32:1],6h[32:1],{32}1x,2,3,4,{16}
6xh[32:1],5h[32:1],7xh[32:1],1h[32:1],4xh[32:1],3h[32:1],{32}8x,7,6,5,
{16}4bx/1bw5[8:1]b,,7b/3b,,1b,,,,{32}7b/3b,6,5,4,1b,2,3,4,8b,7,6,5,2b,3,4,5,
8,7,6,5,4,3,2,1,8,7,6,5,4,3,2,1,8/3,4,5,6,7,8,1,2,3,4,5,6,7,8,1,2,
3/7pp3[4:3],,,,,,,,,,,,,,,,3,,,,,,,,,,,,,,,,
2qq6[4:3],,,,,,,,,,,,,,,,6,,,,,,,,,,,,,,,,
