&title=Mare Maris
&artist=M2U
&first=0.01
&des=ナナミ
&lv_6=14
&inote_2=
&inote_3=
&inote_4=
&inote_5=
&inote_6=(75)
{8},,,,,,,1,
{32}3,5,4,5,3<6[16:1],,24,,,,,,8,,,,6,4,5,4,6>3[16:1],,75,,,,,,1,,,,3,5,4,6,5<8[16:1],,46,,,,,,1-5[16:1],,,,3,,2,,1/8-4[16:1],,7,,,,35,,8,,,,
{32}3,5,4,5,3<6[16:1],,24,,1,,1,2,3,,,,6,4,5,4,6>3[16:1],,75,,8,,7,,2,1,8w4[16:3],,1,,37,,5,,,,,,,,,,,,
{16}3h[8:1]/5,,8-3[16:1],1/7h[8:1],,,68,,6h[8:1]/4,,1-6[16:1],8/2h[8:1],,,31,,
{16}2h[8:1]/8,,5-2[16:1],4/6h[8:1],,,75,,7h[8:1]/1,,4-7[16:1],5/3h[8:1],,,
{32}14,2,3,,
{32}4,,4,5,3-6[16:1],,1h[8:1],,,,,,23,,,,5,,5,4,6-3[16:1],,8h[8:1],,,,,,76,,,,
{32}1,,1,8,2h[16:3],,6,,7,,8,,1-5[16:1]/2,,,,
{64}18,2,3,4,5,6,7,8,1<6[16:1],,,,
{32}6,6,3,4,2,5,1b,,,,4b/8b,,,,6,,3,1,2-5[16:1],,7,5,6,,1,8,2,,6,7,8h[8:1],,4,3,
{48}2-5[16:1],1,2,1,,,78,,,,,,
{32}26,,,,,,6,8,7-4[16:1],,2,4,3,,8,1,7,,3,2,1h[8:1],,5,4,3,2-5[16:1],1,8,7,,,,
{32}26,,,,,,7,8,6,,2,1,3,,6,5,7-3[16:1],7,5-1[16:1],5,3,3,1,1,7V53[24:2],,5,,8,,,,
{32}2,1,8,7,6,5,4,3,2-6[16:1]/6,5,4,3,2>5[16:1],1,8,7,62,,,,2,,,,
{64}1,2,3,4,5,6,7,8,1b/5b,,,,,,,,
{32}24,,2,8,1,,7h[8:1]/8,,,,1,2,3,,2,3,4-6[16:1]/6,,3/7-3[16:1],,2-8[16:1]/8,,1,,4,,7,,2,,,,
{16}1-7[16:1],7-5[16:1],5-1[16:1],4,3<2[4:1],2,1,2,3,,,,,,8b,,
{32}34,,2,8,1,,7h[8:1]/8,,,,1,8,1,7,1,6,1-5[16:1]/5-1[16:1],,26,,3-7[16:1]/7-3[16:1],,48,,15,,,,,,,,
{32}17,,35,,2-5[16:1]/6-1[16:1],,8h[8:1],,,,,,26,,,,4,8,4,7,4-8[16:1],6,4,5,4,,26,,4b,,,,
{32}75,,7,1,8,,2h[8:1]/1,,,,8,7,6,,7,6,5-3[16:1]/3,,6/2-6[16:1],,7-1[16:1]/1,,8,,5,,2,,7,,,,
{16}8-2[16:1],2-4[16:1],4-8[16:1],5,6>7[4:1],7,8,7,6,,,,,,1b,,
{32}65,,7,1,8,,2h[8:1]/1,,,,1,8,7,6,5,4,2-5[16:1],,1,,6-1[16:1],,7,,28,,7,,6/4-8[16:1],,,,3,,2,,1<6[16:1]*>4[16:1]/4,,1,,2v5[16:1]/8v5[16:1],,,,1,,,,28,,,,4-8[16:1]/7,36,25,14,8h[8:1],,,,4b,,,,
{32}2h[16:1],,4,3,4,2,4h[16:1],,2,4,3,5,4,6,5h[16:1],,7h[16:1],,5,6,5,7,5h[16:1],,7,5,6,4,5,3,4h[16:1],,2h[16:1],,4,3,4,2,4h[16:1],,2,4,3,5,4,6,5h[16:1],,7h[16:1],,5,6,5,7,5h[16:1],,7,5,6,4,5b/3b,,,,
{16}2-4[16:1]/8,6-8[16:1]/4,2-8[16:1]/8,6-4[16:1]/4,2,6,2,6,1>4[16:1],5<8[16:1]/1,1/5-2[16:1],1-6[16:1],,,,,
{32}3,3,1,1,2,2,8,8,1-5[16:3]*-5[16:3],1,7,7,
{64}1,2,3,4,5,6,7,8,1bw5[16:2],,,,,,,,,,,,,,,,
{4},
{64}4-8[16:1]/6,37,28,,,,,,35,26,17,,,,,,
{32}14,2,3,4,1,8,7,6,4,5,3,5,2,5,1,5,
{64}1-5[16:1],2,3,,,,,,28,37,46,,,,,,1,,,,,,,,
{32}6,57,57,,3,24,,7,68,,
{64}17,26,35,,
{32}4,4,8,8,2,2,6,6,
{64}4-8[16:1],3,2,,,,,,3v1[16:1]/5v7[16:1],26,17,,,,,,4,,,,,,,,
{32}35,,,,2,8,3,7h[16:1],,5,5,,8,7,4,3,7,6,3,2,
{64}5-1[16:1],6,7,,,,,,46,37,28,,,,,,35,,,,,,,,
{32}4h[16:1],,6,4,5,46,,3h[16:1],,7,86,,1,5,3h[16:3]/7h[16:2],,,,,,
{64}8-4[16:1],7,6,,,,,,1<3[16:2]/7,26,35,,,,,,8,,,,,,,,,,,,,,,,
{32}7,7,1,1,5,5,3,3,8-4[16:1],2,6,4,8v6[16:1]*v2[16:1],2,6,4,8-5[16:1]*-3[16:1],,,,8,,,,8,,,,
{48}4,5,4,6,,,
{32}2h[16:1],,8,17,,5,46,,3-7[16:1],24,,,1-5[16:1],8,2,7,3,,,,1,,,,
{64}4,35,26,17,8,,,,
{32}4,5,2,1,4,5,1,8,4,5,8,7,4,5,3,6,2,7,1,8,
{64}17,26,35,,,,,,28,37,4/6h[8:1],,,,,,4,3,2,1,8,7,6,5,
{32}48,3/7,2/6,1/5,4h[16:1]/8h[16:1],,,2h[16:1]/6h[16:1],,,48,,
{16}81,8h[16:1],
{64}4,5,6,7,8,1,2,3,4h[16:1],,,,,,,,8b,,,,,,,,
{32}24,,2,8,1,,7h[16:1]/8,,8,7,1,,2,1,2,3,4<6[16:1]/6,,3/7-3[16:1],,2<8[16:1]/8,,1,,4,,7,,2,,,,
{16}1<7[16:1],7<5[16:1],5-1[16:1],4,3,2,1,2,
{64}3,4,5,6,7,8,1,2,3h[16:1]/7v4[16:1],,,,6,,,,
{48}2,8,1,8,,,
{64}7b,,,,
{32},,
{32}35,,2,8,1,,7h[16:1]/8,,1,7,8,,1,8,2,,3,4,2,,3-6[16:1],5,1,,
{48}2,7,1,8,,,36,,,,,,
{32}17,,35,,2v5[16:1]/6v1[16:1],,8h[8:1],,,,,,26,,,,4,7,4,1,4w8[16:1],6,4,2,4,,26,,4b,,,,
{32}2-5[16:1],,1,1,2,,3/8-4[16:1],,2b/7,,6,,7,,1/8b,,2>5[16:1],,3,,2/6<1[16:1],,7,,2b/6,,7,,2/6b,,,,
{32}3-8[16:1],,4,,3/6-1[16:1],,5,,3b,,7,,6b/3,,4,,
{32}2-5[16:1]/8,,
{48}1,8,2,8-4[16:1],,,
{32}17,,2b,,7b,,8b,,,,
{32}7-4[16:1],,8,8,7,,6/1-5[16:1],,7b/2,,3,,2,,8/1b,,7<4[16:1],,6,,7/3>8[16:1],,2,,7b/3,,2,,7/3b,,,,
{32}6-1[16:1],,5,,6/3-8[16:1],,4,,6b,,2,,3b/6,,5,,
{64}7b-3[16:1]/1b-5[16:1],26,35,,,,,,2b/6b,35,4,,,,,,1b/7b,
