&title=低调的黑客
&artist=叽里咕噜p
&first=1.7
&des=mdxz114514
&lv_5=14
&inote_5=(70){8}1,18,{12}7>2[105#4:1]*-5>4-2[105#4:1],36,7,,,,,,,{8}8
,18,{12}7>2[12:4]*-5>4-2[12:4],45,,7,,,,,,{8}1,18,{12}7>2[105#4:1]*-5>4-2[105#4:1],36,7,,,,,,,{8}5,6qq1b[46.666#4:1]/4pp1b[46.666#4:1],{12}5,28,,{8},,,,1h[8:1],,1h[8:1],,
1,{16}2-6[140#8:1]
,48,26,7,8-6>5[140#4:1]*p3<5[140#4:1],,,,,,,,,,3,,57,12,8q4[93.333#12:1]/1p5[93.333#12:1],2-6[16:1]/7-3[16:1],63,18,,27,,,,,1,1,3-5[140#8:1]/8,82,7,7,3-1[140#8:1]/6,64,7,7,3-5[140#8:1]/7,,,,3-1[140#8:1]/7,,,7,3/7-5[140#8:1],1,3,3,4/7z3[8:1],5,68,,,,,,,,,,
6,{32}2,7,3,6,4s8[140#8:1],{16}5,1,,,{32},{16}3,{32}7,2,6,3,5q2[140#8:1],{16}5,1,,,{32},{16}1,{32}6,3,7,2,8pp5[140#8:2],{16}5,1,,,{32},{16}3h[16:6],,,,,,
{32}1,7,8,,8,6,2,4,46,7,8/1v4[280#4:1],,6,,,,,,,,4,5,2,7,1,6,8>2[240#4:1],,78,,,,,,,,1,3,7,5,6,4-2[280#4:1],5,4w8[280#2:1],{8},,2h[8:1],,2h[8:1],,2h[8:1],,2h[8:1],,{32}
1,8,2,7,3b,6,2,7,1,8,2,7,3b,6,4,5,5,4,6,3,7b,2,6,3,7,2,8,1,7b-4[280#8:1],3b-8[280#8:1],,,
,,5,1,6b,2,5,1
,6,2,7,3,8b-4[280#6:1],4,8,4,5,8,5,1,6,2,5,1,6b,2,7,3,8,4,8,4,
8,4,8,3,8b,2,7,1,8,2,7,1,1b-5b[280#8:1]/8b-4b[280#8:1],,,,,4,6,5,5b,4,4,3,3,4,4,5,4b,5,5,6,
5,4,3,6,3b,6,2,7,2,7,1,8,1b,8,2,7,1,8,2,7,1,8,2,7,1b,8b,2b,7b,1b,8b,2b,7b,{16},,,,,,,,
1-3[140#8:1],3-5[140#6:1],1,7,5-7[140#8:1],7-1[140#6:1],5,3,1-3[140#8:1],3-5[140#8:1],1,7,{32}1,6,2-5[280#4:1],5-8[180#8:1],{16}2,6,7,8,1,2,8-4[93.333#12:1]/1-5[93.333#12:1],,27,18,
{16},,45,{32}2-7[280#8:1],7-4[280#6:1],2,8,1,2,{16}1,2,1-3[140#8:1],3-5[140#6:1],1,7,5-7[140#8:1],7-1[140#6:1],5,3,1-3[140#8:1],3-5[140#6:1],1,7,{32}1,6,2-5[280#4:1],5-8[180#8:1],{16}2,6,7,8,1,2,81,,27,18,
3h[8:1]/6h[8:1],,,27,1<7[93.333#12:1]/8>2[93.333#12:1],,,18,{24},,27,,2q6[84#12:1]*p6[84#12:1],,,,,,,,{16}1qq1[56#12:1]*pp1[56#12:1],,28,28,,1,,,1,2V41b[56#10:1]/8V61[56#10:1],,1,,,28,,
,,16,,{24}56,,73,,{48},62,{24},,,,24,,,41,{48},47,{24},41,,,{16}
46,,16,,{24}56,,73,,,,62,,,14,,,51,{48},47,{24},31,,,{32}
1h[16:1],,5,3,6,4,2,8<7-5>4-1[280#2:1],,,,,,,,,
8h[16:1],,3,5,4,7,5,1qq4[280#2:1]*v6[280#2:1],,,,,,,,,
1h[16:1],,5,2,7,4,6,2-4<6v8[280#2:1],,,,,,,,,
4bpp1[140#1]/6bqq1[140#1],,,,,,,,,,,,,,,,
4h[16:1],,8,1,6,2,7,4>1-5-2[280#2:1],,,,,,,,,
5h[16:1],,1,7,3,6,4,5qq8[280#2:1]*v2[280#2:1],,,,,,,,,
1h,1h,5,2,7,4,6,2>3-6v1[280#2:1],,,,,,,,,
8bpp5[140#1]/2bqq5[140#1],,,,,,,,,,,,,,,,
1,7,3,6,2b,8,3,5,2,7,1,8,3b,6,{64}2,3,7,6,{32}4,5,2,4,1b,3,1-5[280#8:1],3v6[280#8:1],1,3,,,5b,4,6,5,
7,6,8,7,1b,8,2,1,3,2,{64}3,4,2,1,3b,2,8,7,{32}2,7,1,7,1,6,8b,6,8,5,7-3[280#8:1],5-1[280#8:1],7,5,,,
8,1,7,2,6,3,7b,2,8,1,8-6[93.333#32:1],1-5[186.666#16:1],2-4[140#20:1],1,1b,,2b/8b,,,
6,4,5,3b,4,4,5,5,6,4,5,5b,6,4,5,4,5,3,6,2b,7,3,6,2,7,1,8,1b,8,2,7,1,8,2,7,{64}1b,2,8,7,2,3,7,6,1b,2b,8b,7b,2b,3b,7b,6b,1b,2b,8b,7b,2b,3b,7b,6bh[64:17],{2},{32}
3,4,2,5,1b,6,2,6,3,7,4,8,{64}4b,3,8,7,2,1,6,5,{32}1,5,2,6,3b,7,2,8,1,8,2,7,3b,6,2,7,1,8,2,7,3b,6,4,5,3,4,3,5,4b,5,4,6,3,6,4,5,5b,4,3,4,2,3,1,2,1b-5[280#8:1],2-6[280#8:1],1,2,,,6,7,5b,6,4,5,3,4-8[186.666#12:1],4v2[140#16:1],5,4b,,4b,,,,8,1,1b,2,8,1,1,2,2,3,1b,2,8,1,8,1,7,2,6b,3,7,2,6,3,5,4,5b,3,6,4,5,3,6,4,5b,3,6,4b,5b,3b,6b,4b,5b,3b,6b,
3,6,2,7,1,8,1,8,2,7,2,7,3,6,3,6,2,7,2,7,1,8,1,8,2,7,2,7,3,6,3,6,4,5,4,5,5,6,5,6,4,5,5,6,4,5,5,6,4,5,5,6,6,7,7,8,7,8,6,7,5,6,4,5,4,5,3,6,2,7,1,8,1-4[140#16:1],8-5[186.666#12:1],2v5[140#16:1],7v4[186.666#12:1],1b/8b,,2b/7b,,,5,4,6,3,7,2,6,3,5,4,6,3,5,4,5,4,6,3,7,2,8,1,7,2,6,3,7,2,6,3,5,4,{64}6,5,3,4,6,7,3,2,6,5,3,4,6,7,3,2,6b,5b,3b,4b,6b,7b,3b,2b,7b,6b,2b,3b,7b,8b,2b,1bh[64:25],{4},{8},E
