&title=モリモリあつし vs MASAKI - セイレーンの邀撃
&artist=モリモリあつし ; Morimori Atsushi
&first=1.1
&des=ETLUNA
&lv_1=14+
&lv_5=14+
&inote_1={231}[8]1,
&inote_5=(231){12}1,,1,2,,,1,,1,4,,,1,,1,6,,,6,5,7,3,4,2,8,,8,7,,,8,,8,5,,,8,,8,3,,,2,4,3,7,5,6,
1b,,3,4,,,8b,,6,5,,,3,,1/8,1/8,,,3,4,1,6,5,8,Ch[4:4],
{4},,,,B1/B2/B7/B8/E8/E2,,,,
{12}1/2b$-5[231#16:1],,1,2,,,8/7b$-4[231#16:1],,8,7,,,4/3b$-8[231#16:1]
,,4,3,,,6,5,6,3,4,3,
6$-1[231#16:1],,5,6,,,4/3$-8[231#16:1],,4,3,,,8/1$-5[231#16:1]
,,8,1,,,6,5,6,3,4,3,
2$-5[231#16:1]b,,4,2,,,5/7$-3[231#16:1]b,,5,7,,,3/1$-6[231#16:1]b
,,3,1,,,2,1,2,7,8,7,2b,2,4,6b,6,4,1b,1,3,7b,7,5,
E2/B2,B7,B3,E1/B8,A3,E6,C,,,,,,
{24}3,4,3b,,4,,2,,,,{12}2,,2,4,,4,3,,,3/6,,,7,,7,5,,5,
{24}6,5,6b,,5,,7,,{12},7,6,,6,5,,5,4,,,6/C,,,2/C,,,8/C,,,
{24}3b,4b,3b,,4,,3,,,,,,3,,6b,5b,6b,,5,,6,,,,,,6,,3h[24:5],,,,7h[24:10],,,,,,,,,,1,,
{24},,,,1/C,2,3,,,,,,,8/C,7,6,,,,,,,2b/E1/A8,3b/B8/E8,4b/B7/A7,5b/B6/E7,
,,,,,,7b/E1/A1,6b/B1/E2,5b/B2/E2,4b/B3/E3,,,,,,,,,,,,,,,,,
{12}1,2,1,2,,,2,,2,3,,3,4,,,5,4,6,3,7,2,8,1,8,1,8,1,8,1,6,5,6,5,6,5,4,3,4,3,4,3,
4,1/5,2/6,3b/7b,8/4,,,3,4,,3,,,2,2,6,4,7,,6,5,6,,3,,8,3,5,7,6,,6,2b,2,2b,2,,3,7b,7,7b,7,,
3,3,,4,5,4b,5b,4,5,4b,5b,4/C,
,6/5,,6,5,,,3/4,,3,4,,,8/7,,8,7,,,3,4,3,6,5,6,
1/2$>5[231#16:1],,1,2,,,8/7$<4[231#16:1],,8,7,,,4/3$>8[231#16:1],,4,3,,2,4,3,7,5,6,2/7,,,
7$-4[231#16:1],E1,5,7,,,2$-5[231#16:1],E4,8,2,,,5$-1[231#16:1],8,B3,5,,,2,3,4,3,4,5,
4,5,6,5,6,7,1,2,3/7,6,5/2,3,4/1,8,7/1,2,3/6,5,4,3,2,Ch[4:16],,,{4},,,,,,,,,,,,,,,
{4},1,2,3h[4:6],,8,7,6h[4:6],,2,3,4h[4:6],,A2,C,6h[4:6],,3,2,1h[4:9],,
5,3,7,8h[4:4],,,,,,,,2$-8[231#4:1],B3,8$-6[231#4:1],B1,6$-4[231#4:1],B7/B8,
4$-2[231#4:1],B5/B6/E6,2$-7[231#4:1]b,B3/B4/B5,7$-4[231#4:1]b,B1/E2/A1,
4$-1[231#4:1]b,B6/B7/E7,1$-5[231#4:1]b,B3/A3/E3,5h[4:7],,,,,1,2,3,
{12}4,,4,6,,6,2,,2,,,2,,,2,4,3,5,,1,,,,,5,,5,3,,3,7,,7,,,8,,8/4,7/3,6/2,5/1,8/4,,8,,
,,,1,8,1,8,1,8,1,8,1,8,1,8,2,7,2,7,2,7,2,7,,2,,,1b/8b,1b/8b,1b/8b,2b/7b,,,4/3,,,4,3,,3/4,,,5h[4:3]/2h[4:3],,,,,,,,,
8$>4[231#12:1],7,6,5,4b/8b,,7,,,4,3,,3h[12:3],,,,3,4,,1h[12:2],,,,1,2,3,4,,4[12:3],,,,,8,7,6,5/C,,7/C,,1/C,,3/C,,5/C,,7/C,,1/C,,1/2$-6[231#16:1],,1,2,,3,,3,5,,
5,7$-3[231#16:1],,8,7,,6,,6,1$-5[231#16:1],,8,1,,3,6,4,5,4,6,3,7,2,8,1$-6[16:1],,
7$-3[16:1],,4$-8[16:1],,6$-2[16:1],,1$-5[16:1],,,,8,7,6,5/8,,,25,,4,5,,36,,2b,5,7,5,1,
8b,6,4,2b,4,8,2,4b,3,4,3,4,3,7b,5,6,5,6,5,1,3b,2,3,2,8,6b,7,6,,,3,3,4,6b,6,5,2b,2,1,7,7,8,
1,3,2b,8,6,7b,1,3,2b,8,,,,E2/B2,E6/B6,B3/E4,E8/B7,,C,,E7,E3,,E8/E2,,,,B1/B2/B3/B4/B5/B6/B7/B8/Ch[4:3],,,,,,,,,,,,
{4}3/C,7/C,1h[4:1]/C,,7/C,3/C,5h[4:1]/C,,6/C,4/C,8h[4:1]/C,,3/C,8/C,6h[4:1]/C,,
7/C,4/C,1h[4:1]/C,,5/C,1/C,6h[4:1]/C,
{12}1h[12:4],,,,2h[12:4],,,,3h[12:4],,,,6,5,6,3,4,3,7,6,5,41,2,3,4/8$-4[16:1],,1,8,,,
5/6$-2[16:1],,5,6b,,,3$-7[16:1]/4,,4,3b,,,2,4,3,7,5,6,2$>5[16:1],,8,8b/2b,,,7$<4[16:1],,1,
1b/7b,,,1w5[16:1],,1,1,,,15,,,37,,,
34,,57,,,1$-5[16:1]/8$-4[16:1],,,,18,,,,3,5,7,1,3,5,1,7,5,1,3,24,,18,,57,,57,,18,,24,,1/C,,6/C,,3/C,,8/C,,
2/C,,5/C,,2,2,4,4,3,3,5,5,4,4,6,6,2h[12:2],,1h[12:2],,8h[12:2],,7,,,,,,27,,18,2,3,46,5,6,7,83,,,
2$-5[16:1],,3$-8[16:1],,1$-5[16:1],,6$-1[16:1],,4,,,,2,,2,4,,4,5,,5,7,,,2/B5/E5/B4,,,,,5/E2/B2/E3,,,,4/E8/B8/E1,,,18,,18,7,6,53,2,1,86,5,4,3,2$-6[16:1],,1$-5[16:1],,
8$-4[16:1],,7$-3[16:1],,6$-2[16:1],,5,,2h[12:5],,,,,4h[12:4],,,,6h[12:3],,,8h[12:6],
,,,,,{24}1,2,3,4,5,6,7,8,1,,{12}
,,,,{4}1,2,3h[4:2],,7,6,5h[4:2],,3,5,2h[4:2],,8,6,4h[4:2],,3/E7,1/E5,7h[4:2]/E3,
,8/C,2/E5,6h[4:2]/E1,,3/B6,4/B1,1,{12}2,3,2,7,6,7,{24}4,5,4,5,4,5,3b/6b,,,,,,
{12}2b/7b,,18,18,,,6,7,1,5,3,1,A8,E1,E2,A4,E5,E6,A2,E3,E4,A6,E7,E8,2b$-5[16:1],,8$-3[16:1]b,,4$-1[16:1],,7$-2[16:1]b,,6$-3[16:1],,1$-5[16:1],,1,8,7,68,1,2,37,6,5,42,3,4,51,,,3b/6b,,,8,4,3,8,4,5,3,4,25,16,,6,5,6,47,38,,,3b,E8,,6b,E2,,E4,7b,,E6,2b,,2,,6,{16}3,5,3,5,4,6,4,6,,3,5,3,B3/B6/E3/E7/A2/A7,,,,
18,,,,3b,4,3,4,2b,5,2,5,1b,6,1,6,8b,7,8,7,27,,,,{12}18,,36,36,,,6,4,6,3,7,3,2,8,2,1,,,
{24}7,6,5,1,2,3,6,5,4,8,1,2,1,8,7,3,4,5,2h[4:1]/6h[4:1],,,,,,,,,,,,
{16}2b,4,,6,4b,,8,6b,8,,8b,2,{12}8,1,7,2,6,3,5,4,C,{16}3,4b,3,{12}1,4,7b,{16}6,5b,6,{12}
7b,5,1b,{16}3,4b,2,5,5,6b,4,7,{12}2,B3,8b,E5,7,B3/E3,{8}24,5/7$-4[16:1],,7/1$-5[16:1],,
1/6$-1[16:1],,6b/3,,2b7,,24b,,5b/7,,2b/7,,1/8$-4[16:1],,8/3$-7[16:1],,3/6$-2[16:1],,2b/6b,,1b/5b,,48,,3b/E8,,4b/E2,,7h[4:16]/2h[4:16],,,,,,,,,,,,,,E
