&title=Love Power
&artist=Aice5
&first=0
&des=uapy
&des_5=uapy
&lv_5=12+
&inote_5=(180){4},,,,,,,,(150)6,
5,4,3,
{1}3pp8[8:5],
{2}7h[2:1],{4}1,2,
6,5,4h[4:1],{8}5pp5[8:3]*qq5[8:3],5,
,,,,{2}3h[8:9],
2,{8}1,1<5[4:1],,3,
,,{4}2,3/5,7,
8/6,1,{2}7pp5[2:1],
{1}3qq5[0.4##1.2],
(180){4}6b,{8}4,5/3,,6,{4}7/5qq1[2:1],
{8},6,{4}6,7,8h[4:1],
2b,{8}8,1/7,,2,{4}3/1qq5[2:1],
{8},2,{4}2,3,4h[4:1],
6,7/5,{8}8,8-4[8:1],,3,
,2,{4}2,4/6h[4:1],8,
5/3h[4:1],1,{8}7,7-4[8:1],,7/1,
,2,2,5h[8:3],,6,{4}6,
{8}4,4-2[8:1],,1,,8,{4}8-6[8:1],
5,{8}4,4-8[8:1],,5,{4}5,
{8}6,6-3[8:1],,8,,2,{4}2-5[8:1],
2b/8bV64[4:1],{8}3,3h[8:3],,,{4}1,
8h[4:1],6,{8}6/4,6/4>1[16:3],,4/5,
,8,{4}8,7h[4:1],8,
1-5[8:1],6,7<4[8:1],{8}3,3,
,2-4[8:1],4,2,,5,{4}6/4,
6h[4:1],5,2/4,{8}8,8,
{4}1/6<1[8:1],{8}4,4>1[8:1],,,5<4[8:5],5h[8:9],
,,,,,,,,4,
6,7,8-4[8:1]/1-5[8:1],,,,,{2}2pp1[2:1],
{8}7,,,5h[8:5],
,8,{4}8-4[8:1],,,{2}6pp5[2:1],
{8}4,,,2h[8:5],
,4,{4}4-8[8:1],,,{2}1pp8[2:1],
{8}7,,,5h[8:5],
,8,{4}8>4[4:1],,,{2}6q8[2:1],
{8}3,,,1h[8:3],
,8,{4}8<4[4:1],{8}3,2,{4}1,
2b-5[8:1],{8}1/2,7qq4[8:3],,4,3,2,
{4}2b>5[8:1],{8}2/5,6pp1[8:3],,4,3,2,
{4}2h[4:1],1,7/5,{8}3/4,4/3h[8:3],
,,{4}1,8/7,2/1<5[4:1],
5>1[4:1],1,{2}4b-8[8:1],
{4}7h[4:1],{8}1,8,2/7,3,{4}5<1[4:1],
1<5[4:1],3,4-1[8:1],5,
{8}7,8,1/6,5,3,6,{4}4h[4:1],
{8}5-8[8:1],5-2[8:1],,,,,{4}8,
7-5[8:1],{8}4,3,{4}2-8[8:1],{8}7,6,
5,5w1[32:5],,5,,,{4}7/3,
4-8[8:1],4/6-1[8:1],6/2-5[8:1],2/8-5[8:1],
8b/3h[4:1],{8}4pp8[8:3],4,,,1,1,
{4}7h[4:1],{8}2,1,8/3,4,{4}6h[4:1],
{2}5-1[8:1],8w4[8:1],
{8}6,6,3,5,1,1,{4}2/8,
{8}7,7pp8[4:1],,8-5[8:1],,,,,{4}1>4[8:1],
{8}6,7,{4}8<5[8:1],{8}3,2,
1,1-6[8:1]*-4[8:1],,1,,,5,5,
{4}2/4,7/5,1/3,8/6,
7b<4[8:1],{8}3,2,{4}1b>4[8:1],{8}6,7,
{1}8b>7[4:3]*<1[4:3],
{4},8h[4:1],1,7/1,
3-8[8:1],{8}7,7,,6,{4}6/8,
5-1[8:1],{8}2,2,,3,{4}3/1,
8-4[8:1],{8}2,2,,1,{4}1/5,
{8}6,6,1,8,4,4,{4}6b/2b,
{8}7/5,6,6,2/4,3,3,{4}7-4[8:1]/2-5[8:1],
{1}7b/2b,
E
