&title=Xeraphinite
&artist=BlackY
&first=0
&des=digitalgroove
&lv_5=14 | 14.5
&inote_5=(146)
{96},,,,,
{16},,,,,,,,,,,,,,,,1/7-4[8:1],,,,17,,,,2-5[8:1]/6,,,,26,,,,8-4[8:1]/3,,,,83,,,,1>4[8:1]/5,,,,15,,,,6-2[8:1]/3,,,,63,,,,7/4-1[8:1],,,,74,,,,8-5[8:1]/2,,,,82,,,,3>8[8:1]/7,,,,37,,,,
{16}1/7-4[8:1],,,,17,,,,2-5[8:1]/6,,,,26,,,,8-4[8:1]/3,,,,83,,,,1>4[8:1]/5,,,,15,,,,6-2[8:1]/3,,,,63,,,,7/4-1[8:1],,,,74,,,,8-5[8:1]/2,,,,82,,,,3>8[8:1]/7,,,,37,,7,,
{16}7b,,,3-8[8:1],,8V26[4:1],7,6,,5bxh[8:1],,,5,,5,,6b/2b,,,6-1[8:1],,1V73[4:1],2,3,,4bxh[8:1],,,4,,4,,3b/7b,,,7-4[8:1],,4V62[4:1],3,2,,1bxh[8:1],,,1,,1,,2b/6b,,,2-5[8:1],,5V37[4:1],6,7,,8bxh[8:1],,,8,,8,,
{16}8,,87,,7,,76,,6,,65,,5,,54,,4,,43,,3,,32,,2,,21,,1,,18,,
{16}1,8,3,5,4,6,5,7,2,1,5,7,4,6,2,5,
{16}4h[1:1]/8h[8:5],,,,,,,,,,,,8>4[4:1],,,,8-4[8:1]/4V28[4:1],,,,8qq4[8:3],,,,2x-5[8:1],,,,2,,,,3-8[8:1],,8-4[8:1],8,,4>8[16:3]b,4,,7bqq4[8:3],,,,,,1-3-8-4[8:3],,,,1,E2,E3/5<8V64[8:3],A3,,C,5,,,,2pp4[8:2],,,,2,,,8<5[8:1],,3x-1-5[8:2]b,8x,,,,,,4<8[4:1],,,,4-8[8:1]/8xV64[4:1],,,,4qq8[8:3],,,,6x-1[8:1],,,,6,,,,2-6[8:1],,,6V41[8:2],,,7-3[8:1],,7bh[8:1],,,,,,8q4[8:1]/4q8[8:1],,,,,C,,,7x-4-6[8:2]/3x-8[8:1],7x/3x,7xh[8:1]/3xh[8:1],,,,,,,,2,,,,6,,3,,4-8[8:1],,,,4/2>6[4:1],,,,6V42[4:1]/2-6[8:1],,,,2qq7[8:3],,,,4x-8[8:1],,,,4,,,,6-1[8:1],,1-4[8:1],1,,4<8[16:3]b,4,,,,2xqq4[8:2],,,,,,,,8x,7x,8x,7x-3-7[8:2],,7x,A7,,,,,,,,{24}8,1,2,3,4,5,7-5-8-4[8:3]b,8,1,2,3,4,{16},,,,7x<3[4:1],,,,3V57[4:1]/7-3[8:1],,,,7pp2[8:3],,,,5x-1[8:1],,,,5x,,,,3xV17>5[16:7],,,5-1[8:1]b,,,5,,A1,,8x-4[8:1],,,,8,,,,,25,,,1xqq4[16:5]/7xpp4[16:5],1x/7x,1x/7x,,,,,,,,B4,,,,,,B7,,,,,,C/7-3[8:1],,,,7b>5[4:2],,
{16},,B6,,,,,,,,B2,,,,8<2[2:1],,,,E4/8,,,,,,,,B7,,,,1V35V74[2:1],,,,1/B5,,,,,,,,B1,,,,
{16}3,8,2,7,1,6,4,5,2,7,5,8,3,6,1,5,
{16}2qq5[2:1],,,,2/B7,,,,,,,,E3,,,,8<5v8[2:1],,,,8/B3,,,,,,,,C,,,,3qq8[2:1],,,,3/E6,,,,,,,,E5,,,,
{16}1,5h,1,7h,3,1h,5,1h,4,8h,4,6h,2,4h,8h,4h,
{16}1b/5b,,2,4,3,7,5,,6-1[8:1],,2-5[8:1],,6,,2,,
{16}7b,,4,8,2,6,3,7,2-5[8:1],,6-1[8:1],,2,,6,,
{16}4b,,3,8,2,6,4,7,2/8-5[8:1],,4-1[8:1]/6,,8,,4,,
{16}6b,,2,7,4,8,3,5,1-4[8:1]/7,,3/5-8[8:1],,1,,5,,
{16}4,8,3,7,2,6,5,1,4,8,1,5,2,6,3,7,4,8,3,8,2,8,1,8,1,8,1,7,1,6,1,5,
{16}2,5,2,5,3,5,3,5,4,5,4,5,3,6,3,6,1,8,3,4,1,8,5,6,
{32}1b,2,3,4,7b,6,5,4,2b,3,4,5,8b,7,6,5,
{16}1-5[16:14]b,,,,,,,,,,,,1-5[8:1],,,,1,,6,4,6,,7-4[8:1]/2,,,,3/7,,2-6[8:1],,,,2,,8,5x,7,3,5,,2-4[8:1],,4-6[8:1],,8-4[8:1],,1,,8,,3,5,3,2,6,,3V15[4:1],,1,,3/7-3[8:1],,8,,7,,2,4x,2,1,6,,7-2[8:1],,2,,7/4-8[8:1],,3,,
{16}7/4,6,5,4,8,1,2,3,8-4[8:1],7,6-1[8:1],5,
{16}8,,6,,2b,,3,7x,3,1,6,,2V84[4:1],,8,,2/7-3[8:1],,6,,7,,2,4x,2,1,5,3-6[16:1],,,7-2[16:1],,,1-5[16:1],,,1b,,7,4x,7,6,3,,5-2[8:1],,2V46[4:1],,5,,1,,8,,
{16}8,1,2,3,4,5,1-5-3-7[8:3],8,7,6,
{16}1,,,,,,6,8x,6,2,5,3/4-8[8:1],,8-2[8:1],,4,3x<6[8:1],,,,3,,8-4[8:1],,,,8,,2-6[8:1],,,,2,,7,5x,7,,3-8[8:1],,6-1[8:1],,3,,6,,2,,2h[8:1],,8,7,6,,7v4[8:1],,,,7,,2-5[8:1],,,,2,,,,7b/B3/B4/E4f,,,2b/E6f/B6/B5,,,Cf,,1-5[8:1],,,,1,,,,4,,6,4,6,5,2-5-1[4:1]/4-7[8:1],,,,24,,,Cf,,,
{32}7b,E7,B6,B5,,,2b,E3,B3,B4,,,5b,E6,B6,B7,,,1b,E2,B2,B3,,,
{16}6,,6h[8:1],,
{24}5,4,3,2,1,8,4,3,2,1,8,7,
{32}2,3,4,5,6,7,8,1,2,3,4,5,6,7,8,1,
{16}2bh[8:6]/6,,8,,5,,7,,6,,8,,5,,7,3,
{16}7bh[8:6],,3,,1,,4,,2,,3,,1,,4>7[8:5],,7,,6,,5,,4,,3,,4,,5,,
{16}6,7,8>6[8:5],,1,,8,,7,,6,,7,,8,,1V75<1[8:5],,2,,3,,4,,4,,3,,2,,3,,4,3,2V46>2[8:5],,7,,8,,1,,2,,1,,8,,8,,
{16}7,,7,,26,,6,,3,5,3,5,4q8[8:1]*p8[8:1],4,4,4,4,,,,2-6[8:1],,6V48[4:1],,,,,,7w3[8:1],,,,7,,,,Cf/B8/B7/B6/B3/B4,,1h,7,1h,5,3h,7,3h,1,5h,1,2h,8,2h,6,8h,4,8h,6,3h,7,3h,5,1h,5,1h,7,2,3,5,6,1,8,4,5,7,6,2,3,1,8,5,6,
{16}3,4,8,7,5,6-1[8:1],2,5,{16}6x/3-6[16:1],,,3/8-3[16:1],,,8,,2x-6[16:1],,2x,,1x-5[8:1],,1,,8x-4[8:1],,8,,7-3[8:1],,7x,,5,,5,,51,,
{32}1x-5[8:1],2x,3x,4x,5x,6x,7x,8x,
{16}1x/5xw1[12:1],,,,,,2x/8x,,{32}2,3,4,5,,,4x/8x,7x/3x,6x/2x,1x/5x,,,,,2xV83[8:1]/6xV47[8:1],,,,,,,,,,,,,,8bx,7x,6x,5x,4x,3x,2x,1x,4bx,3,2,1,8,7,6,5,8bx,7,6,5,4,3,2,1,8-4[8:1],7,6,5,4,3,2,1,
{16}8bx>8[8:5]*<8[8:5]/4bx,,,,,,,,,,,,,,,,Ch[8:8]/B7/B6/B2/B3,,,B8,,,B1,,,E8,,,E2,,
E
