&title=Reblossia
&artist=打打だいず
&first=0
&des=Astr0n1a
&clock_count=4
&lv_4=13.7
&lv_5=14.9
&inote_4=(211)
{1},,
{8}4b,3,2,1,{2},
{1}C,C,C,
{8}5b,6,7,8,{2},
{1}C,C,
{8}1bx/5,2x,3x,4x,5x,6x,7x,8x,
{16}4h[16:1],,,,,,7,,,,5,,6,,,,
{16}5h[16:1],,,,,,1,,,,4,,2,,,,
{16}3h[16:1],,,,,,7,,,,1,,8,,,,
{8}6,5,7,4,8,3,7,2,
{20}7,,7h[20:3],,,5,,5h[20:3],,,4,,4h[20:3],,,2,,2h[20:3],,,
{20}1,,1h[20:3],,,3,,3h[20:3],,,
{4}8hb[4:1],1b,
{8}1/2,1/2,,7/8,7/8,,1>4[8:1],8,
{4}1<6[8:1],1w5[8:1],1b,,
{4}8h[8:1]/B4,7h[8:1]/B3,6h[8:1]/B2,5h[8:1]/B1,
{4}4h[8:1]/B8,3h[8:1]/B7,2h[8:1]/B6,1h[8:1]/B5,
{8}7,6,5,4,5/3,6/2,
{4}7-5[8:1]/1-3[8:1],7-4[8:1]/1-4[8:1],7<1[4:1]/1>7[4:1],,,
{8}2h[4:3],,5,5,,6,6,,7h[4:3],,4,4,,3,3-5[8:1],,
{4}3x/6-2[8:1],6x/3-7[8:1],3x/6-4[8:1],6x/3>7[4:1],7x<3[4:1],3x>3[8:3],7x,,
{8}7hb[4:3],,3,2,,2,1,,2h[4:3],,6,7,,7,8-4[8:1],,
{4}8x/1-5[8:1],8<5[8:1]/1x,1>4[8:1]/8x,1x/8x,
{8}8,7,6,5,4x/3x,5x/2x,6x/1x,,
{8}3h[4:1],4,4,,6h[4:1],5,5,,
{16}4/7,,6-1[8:1],5,6,,6,,2,,3,,4/7,,,,
{8}7h[4:1],8,8,,2h[4:1],1,1,,
{16}8/3,,2,1,2,,1/6,,7,8,7,,3/6,,,,
{8}2,2h[4:1],4,4h[4:1],5,5h[4:1],7,7h[4:1],
{8}3,3h[4:1],1,1h[4:1],8,8h[4:1],6,6h,
{8}4b,4,5,5,3,2,6,7,
{16}1b,8x,1x,8x,1x,8x,1x,8x,1x,8x,1x,8x,1x,8x,1x,8x,
{6},6hx[6:4]/4bx,4,4,4,4,
{6},3hx[6:4]/5bx,5,5,5,5,
{6},7hx[6:4]/5bx,5,4,4,3,
{6},2hx[6:4]/4bx,4,5,5,6,
{6},6hx[6:4]/8bx,1,2,3,4,
{6},3hx[6:4]/1bx,8,7,6,5,
{6},6hx[6:4]/2bx,8,2,4,2h[6:7],
{2},,
{12}7,,5,6,,3/4,
{8},3,6,1,
{12}1,,4,3,,6/5,
{8},5,3,7,
{12}1,,5,4,,6/3,
{8},4,6,2,
{12}8,,4,5,,3/6,
{8},2,3,4,
{4}1h[4:1],8h[4:1],7h[4:1],6h[4:1],5h[4:1],4h[4:1],3h[4:1],2h[4:1],
{16}1bx,8,1,8,1,8,1,8,1x,2x,3x,4x,5x,6x,7x,8x,
{8}1hx[4:1],8x,,7,1,6,2q6q1-4-7-2b[1:8],7,
{1}2bx,,,,,,,,
{8}C,,3/7,,1,1,8,8,,,2,,8,,4,,6,,3,,7,,4,5,
{4},,5,4,
{2}C/4h[4:1],C/5h[4:1],E6/E4,B5/B4,Chf[1:1],,4hb[1:1],,
{8}6,5,6,,3,4,3,,6,5,7,,3,4,2,,
{8}2,6,4,,7,3,5,,1,4,2,,8,5,7,,
{8}6/5,6/5,4/7,4/7,3/8,3/8,1/2,1/2,
{8}3/4,3/4,2/5,2/5,1/6,1/6,7/8,7/8,
{16}2b,3x,4x,5x,7b,6x,5x,4x,1b,2x,3x,4x,8b,7x,6x,5x,
{2}4hb[2:1],
{16}3,2,1,8,7,6,5,4,
{8}3/6-2[8:1],,6/4>1[8:1],,8/4,7x,6x,5hx[8:3],
{8},,2,,2-6[8:1],1-7-5[16:3],2,1b,
{8},,1w5[411#8:3],1b,,,8w4[411#8:3],8b,
{16},,,,1,3,1,,8,6,8,,2x/7x-5-3[8:1],,,,
{8}7/2-6[8:1],,2,,4,5,6,7h[8:3],
{8},,2,,1,1,8w4[422#8:3],8b,
{8},,1w5[422#8:3],1b,,,8z4>4-8b[422#4:7],8b/4bh[422#4:7],
{8},,,,,,C,,
{8}6/3-7[8:1],,3/5<8[8:1],,1/5,2x,3x,4hx[8:3],
{8},,7,,7-3[8:1],8-2-4[16:3],7,8b,
{8},,8w4[411#8:3],8b,,,1w5[411#8:3],1b,
{16},,,,8/5,,,,5,7,4,6,3,5,2,4,
{2}1hb[2:1],
{16}E5,E4,E3,E2,E1,E8,E7,E6,E5,E4,E3,E2,E1,E8,E7,E6,E5/Ch[4:1],,
{8},,,4/3,4/2,,6/5,7/5,,3/6,8/1,
{4}8h[4:3],,1h[4:1],,
{8}7-1[8:1]/2-6[8:1],1,7x/2x,,5x,8,3,,
{8}2-8[8:1]/7-3[8:1],8,2x/7x,,4x,1,6,,
{8}1-5[8:1]/8-6[8:1],,1/8-4[8:1],,1/8,1,1-5[8:1],1,
{8}1x,,7,,4v2[8:1]/5v7[8:1],6/3,4/5,,
{8}8,,1,,1-5[8:1],7x-3[8:1]/2,1/6,7,
{8}1bh,,7x,,8-4[8:1],2x-6[8:1]/7,8/3,2,
{8}8bh,,2x,,3,3/4,,6,6/5,,1s5[8:1]/8z4[8:1],,1/8,,,,
{8}2/7-3[8:1],,7/1>4[8:1],,5/1,6,7,8h[8:3],
{8},,3,,2-6[8:1],7-3[8:1],2,7,
{8},,2w6b[411#8:3],2b,,,7w3b[411#8:3],7b,
{8},,,,Ch[4:1],,,,
{8}Chf[1:2]/B1/B2/B3/B4/B5/B6/B7/B8,,,,,,,,
{8},,,,,,,,
{8},,,,,,,,
{8},,,,,,,,
{8}5/4,,,4h[8:1],5,,,,
{8}5/4,,,5h[8:1],4,,,,
{8}7h[1:1],,,,,,,,
{4}3h[2:1],,Ch[4:1],,
{8}1-3[8:1],7-5[8:1],1,7,2-4[8:1],8-6[8:1],2,8,
{8}1,6,1,3,1,8,
{16}1,5,2,6,
{8}3b,3h[8:1],1b,1h[8:1],8b,8h[8:1],6b,6h[8:1],
{8}4h[2:1],,,,C,,,,
{8}8-4[8:1],2-6[8:1],8,2,7-3[8:1],1-5[8:1],7,1,
{8}8,3,8,6,8,1,
{16}8,4,7,3,
{8}6b,6h[8:1],5b,5h[8:1],4b,4h[8:1],3b,3h[8:1],
{8}6h[2:1],,,,C,,,,
{8}5/7,5/7,4/6,4/6,
{16}4b,3x,2x,1x,8x/4,,5bx,,
{8}4/2,4/2,5/3,5/3,
{16}5b,6x,7x,8x,1x/5,,4bx,,
{8}4,3/5,5,4/6,2,1/4,7,8/5,
{16}1b,8,7,6,5,4,3,2,
{16}1,,7,4,7,,2,5,
{20}2,,2h[20:3],,,4,,4h[20:3],,,5,,5h[20:3],,,7,,7h[20:3],,,
{20}8,,8h[20:3],,,6,,6h[20:3],,,
{4}1hb[4:1],8b,
{8}6,4/8,,3,1/5,,8b<5b[8:1],1,
{4}8b>3b[8:1],8bw4b[8:1],8bx,,
{4}7h[8:1]/5h[8:1],7h[8:1]/5h[8:1],2h[8:1]/4h[8:1],2h[8:1]/4h[8:1],
{4}6h[8:1]/4h[8:1],6h[8:1]/4h[8:1],3h[8:1]/5h[8:1],3h[8:1]/5h[8:1],
{4}4h[8:1]/B8,3h[8:1]/B7,2h[8:1]/B6,1h[8:1]/B5,
{4}8h[8:1]/B4,7h[8:1]/B3,6h[8:1]/B2,5h[8:1]/B1/Chf[4:1],
{1},
{8}3,,4,,5,6,5,6,
{8},,1>5[4:1],,1/5<1[4:1],,7,,
{8}6,,5,,4,3,4,3,
{8},,1,,5,2,5,2,
{8}3,,4,,3,4,5,6,,,7>3[4:1],,7/3<7[4:1],,5,,
{8},5,4/6,,4,3/5,,3/4,4/2,,5/6,5/7,,3/6,1/8,2-6[84.4#20:28]*-6[84.4#20:28]/7,
{2},2b,
&inote_5=(211)
{1},,
{8}8b/4,E4,B3,B2,{2},
{64}C,E7,D7,{64},{16},{8},{4},{2},
{64}C,B7,A7,{64},{16},{8},{4},{2},
{64}C,E8,D8,{64},{16},{8},{4},{2},
{8}1b/5,E6,B6,B7,{2},
{64}C,B8,A8,{64},{16},{8},{4},{2},
{64}C,E1,D1,{64},{16},{8},{4},{2},
{16}1bh/5,2h,3h,4h,5h,6h,7h,8h,1h,5,6,7,8,1,2,3,
{8}4/1bh,4,3,4,1,4,3,4,1,4,3,4,2bx,1bx,8bx,7bx,1b,6,5,6,1,6,5,6,4,5,6,7,5,4,3,2,
{20}8,7,6,5,4,3,2,1,8,7,6/3h,4h,5h,6h,7h,8h/5,4,3,2,1,
{20}8/4h,3h,2h,1h,8h,7h,6h,5h,4h,3h,2h/6b,1h,8h,7h,6h,5bh/1b,,,,,
{8}2,1/3,,7,8/6,,1>4[8:1]/8<5[8:1],1/8,
{4}1-5[8:1]/8-4[8:1],1>7[4:1]/8<2[4:1],1/8,,
{4}3h[8:1]/C,7h[8:1]/C,2h[8:1]/C,6h[8:1]/C,1h[8:1]/C,8h[8:1]/C,4h[8:1]/C,5h[8:1]/C,
{8}2,3,4,5,4/6,3/7,
{4}2-4[8:1]/8-6[8:1],2-5[8:1]/8-5[8:1],2-4<5-1>2[4:1]/8-6>5-1<8[4:1],,,
{8}3,,1,8-4[8:1],,8,7,,6,,5,7-1[8:1],,7,3,,
{16}2bxh,3h,4h,5h,1bx,2,3,4,8bxh,7h,6h,5h,7bx,6,5,4,3x,2,1,8,4bxh,3h,2h,1h,
{16}6bx>8[16:4],5>8[16:3],4>8[16:2],3>8[16:1],
{4}6bh,
{8}6,,8,1-5[8:1],,1,2,,3,,4,2-8[8:1],,2,6,,
{16}7bx,6,5,4,8bxh,7h,6h,5h,1bx,2,3,4,2bxh,3h,4h,5h,
{16}8,4,7,3,6,2,5,1,4-7[8:1],8,4,8,4bx,,,,
{8}1/3,2,1/3,,6/8,7,6/8,,1bh[8:3],3,5,7,8bh[8:3],6,4,2,
{8}5/7,6,5/7,,2/4,3,2/4,,6bh[8:3],5,4,3,2h[8:3],6,7,8,
{16}3x,5,3,5,3,5,3,5,4x,6,4,6,4,6,4,6,5x,6,5,6,5,6,5,6,
{16}6x,6,7h,6,8h,6,1h,6,
{8}2bh,6,8h,4,3bh,7,5h,6,
{16}1bh,8,1,8,1,8,1,8,1x,8x,2x,7x,1x,8x,2x,7x,
{6},1bhx[12:1]/4bhx[12:1],1h[12:1]/4h[12:1],1h[12:1]/4h[12:1],1h[12:1]/4h[12:1],1h[12:1]/4h[12:1],
{6},3bhx[12:1]/6bhx[12:1],3h[12:1]/6h[12:1],3h[12:1]/6h[12:1],3h[12:1]/6h[12:1],3h[12:1]/6h[12:1],
{6},2bhx[12:1]/5bhx[12:1],3h[12:1]/6h[12:1],2h[12:1]/5h[12:1],3h[12:1]/6h[12:1],2h[12:1]/5h[12:1],
{6},8bhx[12:1]/5bhx[12:1],7h[12:1]/4h[12:1],8h[12:1]/5h[12:1],7h[12:1]/4h[12:1],8h[12:1]/5h[12:1],
{6},3bhx[12:1]/4bhx[12:1],6h[12:1]/5h[12:1],3h[12:1]/4h[12:1],6h[12:1]/5h[12:1],3h[12:1]/4h[12:1],
{6},7bhx[12:1]/8bhx[12:1],2h[12:1]/1h[12:1],7h[12:1]/8h[12:1],2h[12:1]/1h[12:1],7h[12:1]/8h[12:1],
{6},8bhx[12:1]/1bhx[12:1],3h[12:1]/2h[12:1],5h[12:1]/4h[12:1],7h[12:1]/6h[12:1],8h[12:1]/1h[6:7],
{2},,
{12},,7,7,,5h[24:5],
{8},3,6,1,
{12}4,,3,3,,1h[24:5],
{8},5,3,7,
{12}1,,8,8,,5h[24:5],
{8},2,7,4,
{12}6,,5,5,,1h[24:5],
{8},2,3,4,
{4}1h[2:1],8,7h[2:1],6,5h[2:1],4,3h[2:1],2,
{16}1b,8,1,8,1,8,1,8,1,8,1,7,1,8,1,7,1,8,2,7,1,6,2,5,
{32}1x,8x,7x,6x,5x,4x,3x,2x,1x,8x,7x,6x,5bx-8-3q7-2-5b[8:63],4x,3x,2x,
{1}5b/1bh[1:8],
{1},,,,,,,
{8},,1,,5,3,4h[8:1],2,,,1,,1h[4:1],,,,7,,5,,6,,4,4,
{4},,5,4,
{2}C/5h[4:1],C/4h[4:1],A2/A3/A7/A6/E3/E7/E2/E4/E6/E8,B2/B3/B6/B7/E3/E7,Chf[1:1],,,,
{8}2>4[8:1],1,2,,7<5[8:1],8,7,,3-8[8:1],4,3,,6-1[8:1],5,6,,
{8}2-5[8:1],1,2,8,7-4[8:1],8,7,2,3p6[8:1],5,3,6,7v2[8:1],5,7,,
{8}4,4,5,5,6,6,7,7,
{8}8,8,1,1,2,2,3,3,
{16}4/5,6,7,8,1,2,3,4,
{32}5/E1,E8,E7,E6,E5,E4,E3,E2,E1,E8,E7,E6,E5,E4,E3,E2,
{2}E1f/Ch[2:1],,
{64}2b-7[8:1]/1h[8:1],E3,E4,E5,
{16},,,2/4,,,,
{16}2-5[8:1],,1-6[8:1],,2,,1,,
{16}2,3,4,,7,5,7,,
{16}1,,8-4[8:1],,1,,
{64}8b,B8,C,B4,,,,,
{16},,2-6[8:1]/7-1[8:1],,3,,
{64}2b/7,B2,C,B6,,,,,
{16},,7-3[8:1]/2-8[8:1],,6,,
{64}7b/2,B7,C,B3,,,,,
{16},,1/5,2/6,3/7,,,,
{16}7<3[4:1],3,7,,3x,2x,1x,8x,
{16}7x,,,,2/7,,3,4,3,,6,5,6,,
{64}2b,B2,C,B6,,,,,
{16},,8,,1/7,,5,6,5,,1-5[8:1]/7,,6,6,
{64}1b,B1,C,B5,,,,,
{16},,7-3[8:1],,1,1,
{64}7b,B7,C,B3,,,,,
{16},,2-6[8:1],,5,5,
{64}2b,B2,C,B6,,,,,
{16},,8/3,,4,7,4,,5/6,,2,5,2,,1/6,,
{64}7b-2[8:1]/8h[8:1],E7,E6,E5,
{16},,,7/5,,,,
{16}7-4[8:1],,8-3[8:1],,7,,8,,
{16}7,6,5,,2,4,2,,
{16}8,,1-5[8:1],,8,,
{64}1b,B1,C,B5,,,,,
{16},,7-3[8:1]/2-8[8:1],,6,,
{64}7b/2,B7,C,B3,,,,,
{16},,2-6[8:1]/7-1[8:1],,3,,
{64}2b/7,B2,C,B6,,,,,
{16},,,,4/6,,3/5,,
{16}2xh,8,2xh,8,1h,1,1h,1,
{2}1h[2:1],
{16}7,6,5,4,3,2,1,8,7/3h,2h,1h,8h,7h,6h,5h,4h,7b/3h,,
{8},,,2,1/3,,7,6/8,,2/7,5/4,
{4}5h[4:3],,4h[4:1],,
{16}2-6[8:1]/8,,,,2/4,,,,1-5[8:1],2,1,2,1,,,,
{16}7-3[8:1]/1,,,,7/5,,,,8-4[8:1],7,8,7,8,,,,
{16}E1,B8,B7,E7,E3,B2,B1,E1,E5,B4,B3,E3,E7,B6,B5,E5,
{16}8-4[8:1]/6,,1,,8/6-2[8:1],,7,,6/2,3,4,5,6/8x,,,,
{16}2,,,,4,,,,3-7[8:1],,5,,3,,5,,
{16}8-4[8:1],,1,,8,,1h,,2h,,5,,4h,,6,,
{16}3x,7,3x,7,3x,7,3x,7,3x,6,2x,5x,1x,4x,8x,3x,
{32}7x,6x,5x,4x,3x,2x,1x,8x,7x-2[16:3],6x,5x,4x,3x-6[422#8:3],2x,1x,8x,
{4}7x,,
{64}2b-6[8:1]/1h[8:1],E3,E4,E5,
{16},,,2/4,,,,
{16}2-5[8:1],,1-6[8:1],,2,,1,,
{16}2,3,4,,7,5,7,,
{16}1,,7-3[8:1],,1,,
{64}7b,B7,C,B3,,,,,
{16},,1x-5[8:1]/8-6[8:1],,2,,
{64}1b,B1,C,B5,,,,,
{16},,8x-4[8:1]/1-3[8:1],,7,,
{64}8b,B8,C,B4,,,,,
{16},,,,,,,,1,7,1,7,2,8,2,8,
{2}3h[2:1],
{16}6b,5,4,3,2,1,8,7,
{16}6,5,4,3,2,1,8,7,6,5,4,3,2,1,8,7,
{16}2xh/6x,3h,4h,5h,6h,7h,8h,1h,2h,3h,4h,5h,6h,7h,8h,1h,
{16}7x/2xh,6,5,4,3,2,1,8,7,6,5,4,3,2,1,8,
{16}3xh/7x,2h,1h,8h,7h,6h,5h,4h,3xh,2h,1h,8h,7h,6h,5h,4h,
{16}7bx,6,5,4,7bxh,6h,5h,4h,3xh/E7,2xh/E6,1xh/E5,8xh/E4,7xh/E3,E2,E1,E8,
{16}6h,7,6h,7,6h,7,6h,7,6h,7,6h,7,6h,7,6h,7,
{4}6h[4:3],,7h[4:1],,
{16}2-7[16:1],,1,,2-5[16:1],,6,,2,,6,7,8,,3,,
{16}7,,2,3,4,,1,,3,,7,,5,,7,,
{16}5bxh,4h,3h,2h,6bx,5,4,3,7bxh,6h,5h,4h,8bx<8[16:8],7<8[16:7],6>8[16:6],5>8[16:5],
{8}8bxh,,,,5,6,7/3,,
{16}7-2[16:1],,8,,7-4[16:1],,3,,7,,3,2,1,,6,,
{16}2,,7,6,5,,8,,6,,2,,4,,2,,
{16}4bx,5,6,7,3bxh,4h,5h,6h,2bx,3,4,5,1bx>1[16:8],2>1[16:7],3<1[16:6],4<1[16:5],
{8}1bx,,,,4,3,2/6,,
{16}3/8,,7/5,,1/6,,2/4,,7,8,7,,1,,1,,
{16}7/4,,3/1,,5/2,,6/8,,1,2,3,4,5/7,,6,,
{8}3/7,1/8,2/4,3/7,6/4,8/2,5/7,4/8,
{32}4/8,5,6,7,8,1,2,3,4/7,6,5,4,3,2,1,8,7/3,,
{16},7x/3x,6x/2x,5b/1b,,2x/6x,3x/7x,
{20}4x/8bh[4:1],,,,,7b,,7h[20:3],,,6b,,6h[20:3],,,5b,,5h[20:3],,,
{20}4b,,4h[20:3],,,3b,,3h[20:3],,,
{40}7bx,6,5,4,3,2,1,8,7,6,5bx/4bx,,,,,,,,,,
{8}4h[8:1]/5,5,,8h[8:1]/1,1,,1>4[8:1]/8<5[8:1],8/1,
{4}1s5[8:1]/8z4[8:1],1>7[4:1]/8<2[4:1],1/8,,
{8}2h,8,7h,5,3h,1,2h,5,
{8}8h,6,4h,1,7h,6,4h,1,
{8}3h,5,8h,4,2h,7,5h,3,
{8}1h,5,4h,8,2h,4-8b[38.36#48:1],6h[8:10],4h[8:9],
{1},
{64}7bx,8x,1x/B4,2x,3x/Ch[16:1]f,4x,5x/B8,,,,,,,,,,
{4},,,
{1},,
{2},
{8}5,5,5,5,
{8}3,,4,,5,6,5,6,,,5,,4,,3,,
{8},6/4,6/4,,3/5,3/5,,7/5,7/5,,4/2,4/2,,2/7,3/6,
{8}1pp3pp5pp7pp1qq7qq5qq3qq1[84.4#20:28]/8pp2pp4pp6pp8qq6qq4qq2qq8b[84.4#20:28],
{2},1/8,
