&title=ÅMARA(大未来電脳)
&artist=sasakure.UK
&first=0.02
&des=KuSA
&wholebpm=230
&lv_5=14+
&inote_5=(230){1},
{4}4v1[1:3]/5v8[1:3],,,,,,,,,,,,,,,3h[8:1]/6h[8:1],
4-8[4:11]/5-1[4:9],,,,,,,,,,,,1b,,,,
{8}
7/5h[4:1],,6,6,,4,54,,2/4h[4:1],,3,3,
{16}5,6,7,8,5,6,7,8,
{8}1-5[8:1]/6,,1,8-6[8:1],,8,3,,2-4[8:1]/5,,2,1-6[8:1],,1,4,,
2/4h[4:1],,3,3,,5,45,,7/5h[4:1],,6,6,
{16}4,3,2,1,4,3,2,1,
{8}8-4[8:1]/3,,8,1-3[8:1],,1,7,,3,4,5,6,{16}4,5,4,,7-4[8:1]/2pp1[4:5],,,,
{8},,,,,,,6pp5[8:7],,,,,,,,,
{16}2,3,4,,5,,4,,6,,5,,8z4[8:5],,8>3[2:1],,,,,,,,,,,,,,,,,,
{8}5/6,,5,7,4,6,3,5h[4:1],,2,4,3,6h[4:1]/4h[4:1],,,,{16}7,6,5,,{8}
4,5,3,4,1s5[8:5],1qq8[2:1],,,,,,,,,
{8}7h[8:1]/5h[8:1],,6h[8:1]/4h[8:1],,3h[8:1]/5h[8:1],,2,2,7,8V63[8:3],1,2,,,,,
2h[8:1],4h[8:1],3h[8:1],5h[8:1],4h[8:1],6h[8:1],5h[8:1],7,2,1V35[8:3],8,7-5[8:1],,,,,
8q5[8:6]*>5[8:6],,,,,,,,,,,7/8,,65,5h[4:1]/6,,
7h[4:1],,1,1h[4:1],,3h[4:1],,5h[4:1],,7,{32},45,,,,,,{16}24,,,{8}18,
{16},5-8[4:9]/7,,,
(260){4},,,,,,,,,,5-8[4:9],,,,,,,,4-1[4:5],,,,,,
{8}8,,,5,4h[2:1]/6h[4:1],,,,5,4,3h[4:1]/5h[8:4],,,,4,,
4h[2:1]/6h[8:3],,,,6,4,5h[2:1],,3h[4:1],,,,
4h[2:1]/6h[4:1],,,,5,4,45,,2,2,3,3,4,4,5,5,6,6,67,6/7,,,,,,,
{8}3,3p7[4:1],,5,,5,,5,{16}8,1,2,3,
{8}6,6q2[4:1],,4,,4,,4,{16}1,8,7,6,
{8}2,2-6[4:1],,8,,8,,8,{16}5,4,3,2,
{8}8z4[8:3]/1,1s5[8:2]/8,,,,,,36,{16}4,5,4,5,
{8}3,3v2[6:1],,6v5[6:1],,,,,{16}3,4,3,4,
{8}2,2v4[6:1],,8v7[6:1],,,,,{16}5,6,5,6,
{8}4,4v1[6:1],,7v6[6:1],,,,,{16}8,7,8,7,
{16}1h[8:1]/6h[8:1],,,2h[8:1],,,3h[8:1],,,5h[8:1]/4h[8:1],,,6h[8:1],,,7h[8:1],,,
2h[8:1]/8h[8:1],,,2h[8:1]/8h[8:1],,,2h[8:1]/8h[8:1],,,
(230)
{8}3b-7[8:1]/7b-3[8:1],,,,,5/1-5[8:1],5V71[6:1]*V31[6:1]/1,,,,,,
2b-6[8:1]/6b-2[8:1],,,,,4/8V64[6:1]*V24[6:1],8/4-8[205#8:1],,,,,,
3b-7[8:1]/7b-3[8:1],,,,,1V35[6:1]/5,1/5V71[205#6:1]*-1[205#6:1],,,,,,
2/6,3,4,4,5h[4:1],3,3,5h[4:1],2,2,
{16}5h[8:1]/1h[8:1],,,2h[8:1]/6h[8:1],,,7h[8:1]/3h[8:1],,,4h[8:1]/8h[8:1],,,
5b,,,,7,,7,,7-5[8:1]/3,,,,7/1,,1,,1-3[8:1],,,,5/1,,5,,5-1[8:1],,,,
5/3,,3,,3h[4:1],,,,{12}2,3,1,3,8,3,7,3,6,3,5,3,4,2,1,3v8[6:1],8,4,7,,,
{8}5b,,2,2,7/2-4[8:1],,2/5,5,5-7[8:1],,1/5,1,1-5[8:1],,
1/6,6,6h[4:1],,{12}
5,6,7,6,8,6,1,6,2,6,3,7,4,8,5,{16}1,84,37,26,1b/5b,,,,
{8}
2V48[4:1],2,7,7,6V84[4:1],6,2,2,3-7[8:1],3,5,5,
{16}1,2,3,4,6,7,8,1,
{8}
2-7[8:1]/4h[4:1],,2,,6h[4:1]/1-5[8:1],,1,,
7-4[8:1],3-8[8:1],7,3,{16}5,6,7,8,1,2,3qq4[8:4],4,5bpp4[8:3],,,,,,,,,,,,,,
65,,47,,,,12,,8/3h[4:1],,,,4,,4h[4:1]/3,,,,
{8}2h[4:1],,8,8h[4:1],,6h[4:1],,4h[4:1],,2,{32}54,,,,,,{16}75,,,{8}81,
{16},4/2-7[4:14],,,
(256)
{8},,,,,,,,,,,,,,,,6,,,5,,,4,,,3-6[4:14],,,,,,,,,,,
{16}7,,,,8h[16:4],,,,,,,,,1h[16:4],,,,,,,,,
{8}2-7[4:15],,,,,,,,,,,,,,,,,,,,,,,,{16},,
{8}6,,,5,,,4,,,3-6[4:11],,,,,,,,,,,
{16}7,,,,8h[16:4],,,,,,,,,1h[16:4],,,,,,,,,2b,,,,,,,,,,,,,,,,,,
{8}6,6q2[4:1],,4,,4,,4,{16}1,8,7,6,
{8}1,1q5[4:1],,7,,7,,7,{16}4,3,2,1,
{8}5,5q1[4:1],,3,,3,,3,{16}8,7,6,5,
{8}1s5[8:3]/4,1/4v7[8:2],,,,,,35,{16}2,6,2,6,
{8}1,1-5[8:1],,6-1[8:1],,4,,2h[4:1],{16}8,7,6,5,
{8}3,3-8[8:1],,8-4[8:1],,5,,7h[4:1],{16}4,3,2,1,
{8}6,6-3[8:1],,2-7[8:1],,4,,5h[4:1],{16}1,2,3,4,
{8}5,2-5[8:1]/7-4[8:1],,27,,8h[4:1],,3,{16}3b,,,,
(266)
{12}
4h[6:1]/7h[6:1],,,3h[6:1]/6h[6:1],,,2h[36:5]/5h[6:1],,,1,8,7,6,5,84,7,6,5,
4h[6:1]/2h[6:1],,,3h[6:1]/5h[6:1],,,4h[6:1]/6h[36:5],,,7,8,1,2,3,48,1,2,3,
4h[6:1]/6h[6:1],,,5h[6:1]/3h[6:1],,,2h[36:5]/4h[6:1],,,1,8,7,6,5,84,7,6,5,
3/4h[6:1],,3,,3,,6/5h[6:1],,6,,6,,1,8,2,7,3,6,
(276)
{12}4h[6:3],,5,,5,,6h[6:2],,5,,5,,6,5,7,3,4,2,
5h[6:3],,4,,4,,3h[6:2],,4,,4,,3,4,2,6,5,7,
4-1[6:1],,6,,6,,5-8[6:1],,3,,3,,1,2,3,8/4,7,6,
5/1,,1,,1,,7/3,,7,,7,,5/2,,25,,52,,
(229)
{16}1b/4b,,,3,,,5,,,7,,,{32}8,,,,,6,,,,,4,,,,,2,,,,,4,,,,,5,,,,,7,,,,,5,,,,,{8}4,3,4,5,6,5,4,3,{12}5,4,6,3,5,4,{16}5,4,5,4,5,4,5,4,5h[24:1],4h[24:1],
5h[24:1],4h[24:1],
5h[24:1],4h[24:1],5h[32:1],4h[32:1],5h[32:1],4h[32:1],
5-1[16:62],4-8[16:61],,
,,,
{32},,,,,,,,
,,,,,,,,
,,,,,,,,
,,,,,,,,
,,,,,,,,
,,,,,,,,
,,,,,,,,
(230)
{8},,,,,,,,
,,,,,,,,,,,,,,,,,,,,,,,,
5V31[4:3]/4-1[4:3],,,,,,,,,,,,,,,,
4V68[4:3]/5-8[4:3],,,,,,,,,,,,,,,,
4V28[4:3]/3-8[4:3],,,,,,,,,,,,,,,,
5V71[4:3]/6-1[4:3],,,,,,,,,,,,,,,,
7V53[8:4],,,,3V58[2:1],,,,,,,,,,,,
2V46[2:1],,,,6p1[2:1],,,,,,,,,,,,
7V53[2:1],,,,3V58[2:1]*q8[2:1],,,,,,,,,,24,,
2h[8:3]/4h[8:2],,,7h[8:3],5h[8:3],,,,1b/8b,,,,,,,,
2-6[8:1],7,2,1,1<7[8:1],4,1,3,3V52[4:1],6,3,8,,7,8,1,
2-4[8:1],1-6[8:1],2,1,2-5[8:1],1-7[8:1],2,1,3,3,3,2/4,,54,45,,
7-3[8:1],2,7,8,8>2[8:1],5,8,6,6V47[4:1],3,6,1,,2,1,8,
7-5[8:1],8-3[8:1],7,8,7-4[8:1],8-2[8:1],7,8,6,6,6,7-4[8:1]/5-2[8:1],,,,,
1-4[8:1],6,1,8,1-6[8:1],4,1,2,1-5[8:1],5-1[8:1],7,7,,
{16}3/8,,2,1,2,,{8}7<5[8:1],8-4[8:1],7,8,1-5[8:1],2>4[8:1],1,2,
7,7,7,7v6[8:1]/3v2[8:1],,,,,
8-5[8:1],3,8,1,8-3[8:1],5,8,7,8-4[8:1],4-8[8:1],2,2,,
1/6,{16}7,8,7,,2,,2,,4,5,6,7,3,,3,,6,7,8,1,4,,4,,
1b,8,7,6,1b-5[8:1],2,3,4,1b,,,,
{8}4/3-8[8:1],,7,7,5/6-1[8:1],,2,2,{16}8,7,6,5,8,7,6,5,
4/8-4[8:1],3,2,1,8/7,,,,
{8}6-3[8:1]/3,,1,1,5/2-7[8:1],,6,6,{16}8,1,2,3,84,7,6,5,
3-8[8:1]/4-7[8:1],,,,,,,,
{8}2-5[8:1],,7-3[8:1],,1-5[8:1],,6<3[8:3],,2,,4,4,,65,
6/5-2[8:1],,7-4[8:1],,8-4[8:1],,5-1[8:1],,3,,7b/2b,,
{16}3>8[8:1],4,3,4,3<6[8:1],,,,,,,,
{8}8/7-4[8:1],,3,3,1/2-5[8:1],,6,6,
{16}4,3,2,1,4,3,2,1,8/4-8[8:1],7,6,5,42,,,,
{8}7/3-6[8:1],,8,8,4/7-2[8:1],,3,3,
{16}1,8,7,6,51,2,3,4,5-2[8:1]/6,,,,
{8}8<5[8:1],8,8-3[8:1],,8-5[8:1],,8>3[8:1],,8V62[8:3],,8,,
4,4,,12,3h[4:1]/8,,
7,7,{16}5,4,3,2,6,,6,,4,3,2,1,5,,5,,
1b,6,1,6,2b,7,2,7,{32}3b,4,5,6,7,8,1,2,
(224)
{8}3b-7[8:1]/7b-3[8:1],,,,,1-5[8:1]/5,1/5V71[6:1]*V31[6:1],,,,,
{16}8,1/7,{8}2b-6[8:1]/6b-2[8:1],,,,,4/8V64[6:1]*V24[6:1],4-8[200#8:1]/8,,,,,
{16}1,28,
{8}7b-3[8:1]/3b-7[8:1],,,,,1V35[6:1]*-7[12:1]/5,3/7V51[16:3],,,,,
{16}48,37,{8}2b-6[8:1]/6b-2[8:1],,,,,4/8-6[12:1]*-2[12:1],2bV48[16:3]/6bV48[16:3],,,,
,
{16}17,26,
{8}5b/3b-8[8:1],4,3,6-3[8:1],7,6,1-5[8:1],4,1,6,6,{24}3,2,1,
{8}8b-3[8:1],6,8,4-7[8:1],2,4,3,3,{16}5,4,6,3,5,4,6,,
1b,8,1,8,2>5[8:1],,2,,6,,7,,8-3[8:1],,3>7[32:5],,8<5[8:1],,4,,4,,3,,
2,4,2,4,3,5,3,5,4,6,4,6,5,7,5,7,5,7,
{32}5-1[8:1],6,7,8,1qq7[16:96]*pp2[16:96],2,3,4,5b,
