&title=Liberation
&artist=Silaver & lixound
&first=0.34
&des=魔風茅野ⅹ浦東心愛
&lv_5=14
&inote_5=(195)
{8}4,3,3h[8:1],,5,6h[8:1],,,
6,5,5h[8:1],,4,3h[8:1],,,
3,4,4h[8:1],,6,5h[8:1],,,
3,2,2h[8:1],,6,7,7h[8:1],,
8,7,7h[8:1],,1,2h[8:1],,,
2,1,1h[8:1],,8,7h[8:1],,,
7,8,{4}8-5[8:1],8b/1-4[8:1],1b/6pp2[8:7],
,{8},2,3-5[8:1],4,{4},
{8}1/7-4[8:1],8-5[8:1],7/1-6[8:1],,3-7[8:1],2h[8:1],,1h[8:1],
,5V71[4:1],6V82[4:1],,4-1[8:1],3,,5h[8:1],
,2-6[8:1],8-4[8:1],,8,5,,3V14[4:1],
,6,5>8[8:3],,7,6,5,4,
3b-6[8:1],2-5[8:1],3/1-4[8:1],,7-3[8:1],8h[8:1],,4h[8:1],
,5-2[8:1],4>8[4:1],,8-3[8:1],7,,6h[8:1],
,6,{4}5<8[8:1]*s1[8:5],4>1[8:1]*z8[8:3],,
5b/4b,{8},6,7h[4:1],,1-5[8:1],2h[8:1],
{1}1bw5[1:3],,,
{2},{4},5<2[2:3],
{1}4h[4:3],
{4}4,4,4,4,
{8}3,3,3,3,3,3,3z7[4:3],3,
{1}3h[4:3],
{8}3-1[8:1]/5,4,3,5,6-8[8:1],5,6/4,3,
2-4[8:1],1,2,8,7-5[8:1],8,7/1,2,
3-8[8:1]/8,3/8,3/7,6,5/3-8[8:1],4,3/7,6,
5/3-8[8:1],4,3/7,6,5/3-8[8:1],4,3b/7,,
6-1[8:1]/4,5,6/2,3,4/6-1[8:1],5,6/2,3,
4/6-1[8:1],5,6/2,3,4/6-1[8:1],5,6,,
{2}2h[4:1]/4h[8:1],{4}7h[4:1]/5h[8:1],5>2[6:1],
5<8[6:1],5-1[8:1],5h[4:1],,
{8}4-8[8:1],3,2/4,1,7,5h[8:1],1,8/2h[8:1],
5-1[8:1],6,7/5,8,2,4h[8:1],8,1/7,
7/2,6/3,5/4,3-7[8:1],7>2[8:1],3,5-1[8:1],6,
5,3,2-4[8:1],6/1,7,8-6[8:1],1,5b,
{16}1,4,3,4,1,5,4,5,8,6,5,6,8,5,4,5,
8,1,2,3,6,7,8,1,4,5,6,7,2,3,4,5,
{8}6h[16:3],{16},8h[16:3],{8},2h[8:1],3h[16:3],{16},5h[16:3],{8},7h[8:1],
8h[16:3],{16},1h[16:3],{8},6b,{4}8bw4[8:1],8<5[4:1],
(97.5)
{16}8>3[8:1],5,4,3,8-5[8:1],3,4,5,8-3[8:1],5,4,3,8<4[4:1],3,4,5,
{4}4b>8[4:1],8b,{48}4,3h[24:1],,6,5h[24:1],,2,3h[24:1],,{16},{48}1>4[8:1],2h[24:1],,7,8h[24:1],,3,2h[24:1],,{16},
{16}1<6[8:1],4,5,6,1-4[8:1],6,5,4,1-6[8:1],4,5,6,1,6,5,4,
8-3[16:1],6-4[16:1],8-5[16:1],6-3[16:1],{4},{16}1b-6[16:1],3b-5[16:1],1b-4[16:1],3b-6[16:1],{4}1b<6[8:1],
{8}1-4[16:1],{16}3,2,1-6[16:1]/4-2[16:1],6,7,8,{8}1-5[16:1]/4,{16}3,2,1V75[4:1]/4,6,7,8,
{4}5bV31[4:1]/1,1b,{48}3,4h[24:1],,7,8h[24:1],,2,3h[24:1],,{16},{48}6,5h[24:1],,2,1h[24:1],,7,6h[24:1],,{16},
{8}8-5[16:1]/5,{16}6,7,8-3[16:1]/5-7[16:1],3,2,1,{8}8-4[16:1]/5,{16}6,7,8/5,3,2,1,
(195)
{16}8b,7,1,6,2,5,3,4,4,5,5,6,4,7,3,8,
2b,1,8,7,1,8,7,6,8b,7,6,5,7q4[4:3],6,5,4,
{1}3q8[2:1]/7b,
{16}8,4,8,4,7,3,7,3,6,2,6,2,5,1,5,1,
{4}4h[4:1],{8},{16}5,4,{4}3h[4:1]/6b,1h[4:1],
{12}2,1,1,3,8,8,4,7,7,5,6,6,
{4}5h[4:1],{8},{16}4,5,{4}6h[4:1]/3b,8h[4:1],
{12}7,8,8,6,1,1,5,2,2,4,3,3,
{4}4h[4:1],{8},{16}7/5,7/5,{2}7h[4:1]/5b,
{12}3,4,2,6,5,7,2,4,3,7,5,6,
{4}5h[4:1],{8},{16}2/4,2/4,{2}2h[4:1]/4b,
{12}6,5,8,3,4,1,{16}7,5,6,2,4,3,7,1,
(180)
{8}8,2,3>8[8:1]/6,{16}4,6,{8}3-7[8:1],5-1[8:1],{4},
(170)
{8}4h[4:1],8,8V63[4:1]*V25[4:1],{16}6/2,7/1,{4}8,{8},6h[4:1]/2h[4:1],
(160)
{4},3h[8:1],{8}5h[4:1],4>5[128:101],{4},
(150)
,{8}4,5>2[8:3],{8},7,{16}1-3[8:1],8,7,6,
(160)
{8}5,6-4[8:1],7,8,1-7[8:1],2,3>1[8:1],4,
(170)
5,6>4[8:1],7,8,1<7[8:1],2,3,4,
(180)
{16}5,6,5,6,{4}4h[8:1],{16}4,3,4,3,{4}5h[8:1],
(190)
{16}6,3,6,3,{4}7h[8:1],{16}2,2,1,1,8>3[4:1],8,7,7,
(195)
{8}8b,4<7[4:1],,4b,{4}8w4[8:1],8b,
{8}6/2,1,1,5/2,{16}1-5[8:1],8,{8}7,{4}1<6[4:1]/4,
{8}1b,5>2[4:1],,5b,{4}1w5[8:1],1b,
{16}7-3[8:1],6,5/1-5[8:1],2,{4}3/7,{16}6v4[8:1],7,8/4-8[8:1],3,{4}2<7[4:1],
{8}2b,6>3[8:1],,6b,{4}2w6[8:1],2b,
{8}3/5h[8:1],2,3/5,{16}6,4,{8}5h[8:1],3,7>2[4:1]/4,{16}6,5,
{8}7b,3<6[8:1],,3b,{4}7w3[8:1],7b,
{8}2,2h[8:1],4,4h[8:1],{16}5,5,6,6,7,7,8,8,
{8}1b-4[8:1],4-2[8:1],1,7-5[8:1],8,2-4[8:1],1,7,
8b-5[8:1],5-7[8:1],8,2-4[8:1],1,7-5[8:1],8,2,
1b-5[8:1],5-3[8:1],1,7-4[8:1],8,2-5[8:1],1,7,
8b-4[8:1],4-6[8:1],8,2-5[8:1],1,7-4[8:1],8,2,
3b,8/1,5,7/1,4b,8/2,6,7/2,
8b/1b,2/3,4b/5b,6/7,7b/8b,6b/5b,4b/3b,2b/1b,
{1}6h[4:3]/2h[4:3],
{8}3/4,6/5,{16}1,8,2,7,3,6,4,5h[16:5],4,3,2,1,
{8}8,7/6b,2/3b,1-5[8:1],2,8-6[8:1],2,4h[8:1],
,2/3,7/6,8-4[8:1],7,1-3[8:1],7,5,
6,7/3,8/2,1-5[8:1],2,7-3[8:1],6,2h[8:1],
,5,4h[8:1],6,7b/5h[8:1],6,3,4h[8:1]/2b,
,6h[4:1],3,2-4[8:1],1,8-6[8:1],1,5h[8:1],
,3h[4:1],6,7-5[8:1],8,1-3[8:1],8,{16}4,5,
{16}6b-4-8[4:1],,,4,6,,1,,2b-8-4[4:1],,,8,2,,5,,
{4}6b,3b/7b,{24}7,8,1,2,3,4,5,6,7h[6:1],{8},
,1/8b,4/5b,6-2[8:1],5,7-1[8:1],5,3h[8:1],
,4/5,1/8,3-7[8:1],4,2-8[8:1],4,6h[8:1],
,5/1,6/2,7-3[8:1],8,5-1[8:1],4,8h[8:1],
,4,5h[8:1],3,2b/4h[8:1],3,6,5h[8:1]/7b,
{4}2-6[8:1],8-4[8:1]/2,1-5[8:1]/8,7-3[8:1]/1,
{8}8-4[8:1],8,1-5[8:1],1,2-6[8:1],2,3,3,
{16}3b-5-8[4:1],,,5,3,,8,,7b-1-4[4:1],,,1,7,,4,,
{2}2h[4:1],{16}2,2,2,2,{32}2-4-1[8:1],3,4,5,6,7,8,1,
{4}2b,{8}6/5h[8:1],7,6h[8:1]/5,2,6/5h[8:1],7,
6h[8:1]/5-3[8:1],5,1-7[8:1],1,4-2[8:1],4,8,8,
{8}6/1,5/2,3/4h[8:1],2,3h[8:1]/4,7,3/4h[8:1],2,
3h[8:1]/4-6[8:1],4,8-2[8:1],8,5-7[8:1],5,1,1,
{4}8b/2,{8}7/1h[8:1],6,7h[8:1]/1,3,7/1h[8:1],6,
7h[8:1]/1-3[8:1],1,4-6[8:1],4,2-4[8:1],2,5,5,
{8}6/4,7/3,2/8h[8:1],3,2h[8:1]/8,6,2/8h[8:1],3,
2h[8:1]/8-6[8:1],8,5-3[8:1],5,7-5[8:1],7,4,4,
{2}4bw8[8:1],{8}2/5,6,7/8-4[8:1],1,
8/2-7[8:1],3,2/6-3[8:1],5,6/1-5[8:1],2,1,8,
1bw5[8:1],7,{4}1b,{8}7/4,3,2/1-5[8:1],8,
1/7-2[8:1],6,7/3-6[8:1],4,3/8-4[8:1],7,8-3-5[2:1],1,
8,5,5-8[4:1],6,7,8,1-6-4[2:1],2,
1,4,4-1[4:1],3,2,1,8,7,
8h[4:1]/4,5,5,5,6h[4:1]/2,3,3,3,
{32}7h[16:1]/3b,2,{8}1,{32}2h[16:1]/7b,6,{8}5,{32}6h[16:1]/2b,3,{8}4,{32}3h[16:1]/6b,7,{8}8,1bv6[8:1]/5bv2[8:1],7b/3b,
