&title=POTENTIAL
&artist=TAG
&first=0
&des=Benren
&lv_5=14+ | 14.7
&inote_1=(200)
{4},,,,
{4}1,,1,,
{4}1,,1,,
{4}1,,1,,
{4}1,,1,,
{4}1,,1,,
{4}1,,1,,
{4}1,,1,,
{4}1,,1,,
(187)
{4}1,,1,,
{4}1,,
(167)
{4}1,,1,,
(155)
{4}1,,1,,
(222)
&inote_4=
&inote_5=(200){1},
{4},,,{64},
{8}2x,5,4,6,5,7,3,5,
{8}3x,4,2,6,4,7,5,6,
{8}4x,5,2,4,3,5,4,7,
{8}2h[2:1],,8,8,8x,,C,,
{8}7x,4,5,3,4,2,6,4,
{8}6x,5,7,3,5,2,4,3,
{8}5x,4,7,5,6,4,5,2,
{8}6x,4,7,3,5xh[4:1],,C,,
(190)
{8}2xh[1:0],4,3,6,5,7,3,5,
(175)
{8}3xh[1:0],5,4,7,5,6,3,4,
(160)
{8}2xh[1:0],5,4,7,3,8,1,6,
(133.3)
{4}Chf[8:16]/B1/B8/E1,{32},,,,,,,,,,,,,,,,,,,,,,,,,,,,,,,,
{32},,,,,,,,,,,,,,,,,,,,,,,,
(200)
{8}5hxb[2:6],,,,,,,,
{8},,,,,,,,
{8}3h[1:2],,,,,,,,
{8},,,,,,,{16}A7,B7,{8}Chf[8:3],
{8},,2bxw6b[8:5],,,,,
{8},,,,46,,37,,
{8}2-6[8:1],2,,7-3[8:1],7,,2V48[4:1],2,
{8},7V51[4:1],7,,E2,E3,E4,,
{8}8b-4[8:1],,8/3-8[8:1],,3x/5x,5x-8[8:1],,
{8}5/2-5[8:1],,2/1-6[8:1],,1x/5x,4,3-8[8:1],,
{8}3/4h[4:1],,,5x-8[8:1],,5/1,1-5[8:1],,
{8}1b/6-1[8:1],,6,,2-5[8:1]/8-5[8:1],37,2x/8x,,4x/6x,
{8}4xb/6xb-1[8:1],,6/2-6[8:1],,28,8-4[8:1],,8/1-6[8:1],
{8},1/5-8[8:1],,2x/5x,3,4-1[8:1],,4,
{8}7b-4[8:1],7,8-3[8:1],8,5-1[8:1],5,2,2b-6[8:1],
{8},2b/8bV64[4:1],,4x/8x,2,8xb,{16}4x,2,5,3,
{16}6V48[4:1],,,,6x,,1x,,2-5[8:1],,2,,7-4[8:1],,7,,
{16},,3,5,2,6,1,7,2,8,3,7,4,6,3,5,
{8}2-5[8:1],8<5b[8:1],2,8b>3b[8:1],,8b-4b[8:1],,8b,
{16},,8x,6,1,7,2,8,3b-5[8:1],,3,,6-1[8:1],,6,,
{16}3-8[8:1],,,,37,,7h[4:1],,,,8,6,1,7,2,8,
{16}3x,1,2,4,3,5,4,6,5,7,6,,4x/8x,,,,
{8}1>6[2:1]/6,,7,7,7,8,8,8,
{8}8<3[2:1],,2,2,2,1,1,,
{8}1/6,8-3b[8:1]/7,,8b/7b-4b[8:1],,7b/2b-5b[8:1],,2b/8b,
{8},8b-4b[8:1],2b-5b[8:1],8xb,2xb,,8/3,1-6b[8:1]/2,
{8},1bx/4b-1b[8:1],,5b/4b-7b[8:1],,4b/3b,,8bx,
{8}2/6,2/6,4/8,4/8,1/6,8/7-4b[8:1],,7b/8b-3b[8:1],
{8},5b-8b[8:1]/8b,,5b/4b,,1b-4b[8:1],7b-4b[8:1],1bx,
7bx,,35,2-6b[8:1]/1,,2b/7b-4b[8:1],,7b/8b,
{8},
{16}2,,
{48}3xbh[12:1]/4xbh[12:1],,,,,,,,5bh[12:1]/6bh[12:1],,,,,,,,7bh[12:1]/8bh[12:1],,,,,,,,1xbh[12:1]/2xbh[12:1],,,,,,,,3bh[12:1]/4bh[12:1],,,,,,,,5bh[12:1]/6bh[12:1],,,,,,,,
(150)
{1}7bxh[4:4]/B2/B3/E3f,
{1}4xh[4:4],
{1}5xh[4:4],
{1}2xh[4:3],
{8}3x/4x,3,31,3,35,3,38,3,
7x/4x,7,72,7,75,7,71,7,
{16}5x,6,4,5,3,4,2,3,
1x,3,2,4,3x-8[8:1],5,4,6,
{16}3x,,,7,,,16,,47,,,15,,,26,,
{16}3xh[8:1]/4x,,5,,3h[8:1]/5,,6,6,3h[8:1],5,,6,3h[8:1]/6,,7,,
{16}6h[8:1]/5,,4,,6h[8:1]/4,,3,3,6h[8:1],4,,3,6h[8:1]/3,,2,,
{16}2h[8:1]/5,,6,,2h[8:1]/6,,7,7,2h[8:1],8,,7,2h[8:1]/7,,6,,
{16}7h[8:1]/4,,3,,7h[8:1]/3,,2,2,7h[8:1],1,,2,7h[8:1]/2,,3,,
{16}4h[8:1]/7,,6,,3h[8:1]/6,,5,5,2h[8:1],6,,7,1h[8:1]/7,,6,,
{16}5h[8:1]/2,,3,,6h[8:1]/3,,4,4,7h[8:1],3,,2,8h[8:1]/2,,3,,
{16}3h[8:1]/7,,6,,2h[8:1]/6,,5,5,1h[8:1],4,,5,8h[8:1]/5,,4,,
{16}4bx,,15,15,,37,37,,1-5[8:1]/8-4[8:1],,27,,{32}1b/8b,,,,,,,,
(155){16}3xb,5,4,6,5x,7,4,6,3x,5,2,6,{24}3x,5,4,5,3,6,
(160){16}4xb,5,3,6,4x,7,3,6,4x,5,3,6,{24}4x,6,5,6,4,5,
(165){16}2xb,5,3,7,4x,6,4,5,3x,6,5,7,{24}4x,6,5,6,4,7,
(170){16}5xb,6,4,5,3x,4,2,5,3x,7,4,6,{24}3x,4,2,4,3,5,
(180){16}4xb,5,3,6,4x,5,3,6,4x,5,3,6,{24}2x,3,4,7x,6,5,
(185){16}3xb,4,2,5,3x,4,2,5,3x,4,2,5,{24}2x,3,4,1x,8,7,
(190){16}5xb,6,4,7,5x,6,4,7,5x,6,4,7,{24}3x,2,1,7x,6,5,
(195){32}3b,,,,3/4x,5x,6x,,3b,,,,3/5x,6x,7x,,3b,,,,3/6x,7x,8x,,3b,,,,3/7x,8x,1x,,
(200){16}2x,1,2,1,2,1,2,1,2,1,2,1,2,1,2,1,
2,1,2,1,2,1,2,1,2,1,2,1,2,1,2,1,
{32}2x,,3,,4,,5,,2x/6x,,1,,8,,7,,1x/6x,,2,,3,,4,,1x/5x,,8,,7,,6,,8x/5x,,1,,2,,3,,8x/4x,,7,,6,,5,,{48}7x/4x,,8,,1,,2,,3,,4,,5b/1b,,,
{16},,,
1b/6b,,3,4,2,,38,,7,8,6,8,7-3[8:1],,6,,
{8}1b-5[8:1]/7b,,1b<6[8:1]/4xb-7[8:1],,1b-5[8:1]*-3[8:1]/4bx,,{48}1xb,,,,,,{8},
{16}4x/7x,,6,5,7,,1x/5x,,3,4,2,4,1-4[8:1],,8,,
{8}1b/6b,,3x/1x-5[8:1],1,1b-6[8:1]/4b-8[8:1],,{48}1b/4b,,,,,,{8},
{16}1b/5b,,7x,8,6,8,7h[8:1],,5x,6,4,5,3,4,2,,
{16}4b/8b,,2x,1,3,1,2h[8:1],,4x,3,5,4,6,5,7,,
{16}1b/6b,,3x,4,2,4,3h[8:1],,6x,8,7,1,8,2,1,3,
{32}
2xb,1,8,7,{8}6h[4:1],,{32}4b,3,2,1,{8}8h[32:7],,
{32}1xbpp4[4:3]/7xbqq4[4:3],26,35,4,{8},
{8}1b/7b,,,,,,,,
{32}2b/8b,3,4,5,,,7b,6,5,4,,,1b<6[8:1],2,3,4,,,,,{24}2x/1x,3,4,5,,,{16},,
{16}3b/8b,,6,5,7,,1/6,,3,4,2,4,3,5,2,4,
{16}1-6[8:1],,4-8[8:1],,1-3b[8:1],,4,,1-5[8:1]*-7[8:1],,,,1b,,,,
{16}4b/6b,,3,4,2,,38,,6,5,7,5,6,,25,,
{16}4b/7b,,6,5,7,,61,,3,4,2,4,3,,74,,
{16}2b,7,1,8,3,6,1,8,4,5,2,7,3,6,1,8,{32}1b,2,3,4,5,6,7,8,1x,2,3,4,5,6,7,8,1x,2,3,4,5,6,7,8,1xh[4:1],,,,,,,,
{16}7b,8,6,8,7h[8:1],,2b,1,3,1,2h[8:1],,7b,8,6,8,
{16}7h[8:1],,2b,1,3,1,2h[8:1],,1x,8,7,6,1x/5x,2,3,4,
{16}6b,5,7,5,6h[8:1],,3b,4,2,4,3h[8:1],,7b,5,6,5,7h[8:1],
{16},2b,4,3,4,2h[8:1],,{48}7x,,,1x,,,7xh,6xh,5xh,,,,2x,,,8x,,,2xh,3xh,4xh,,,,
{32}8xb,,5x,,6x,,4x,,7xh[8:1],,,,1b,,5,,3,,4,,2h[8:1],,,,7b,,3,,5,,4,,6h[8:1],,,,1b,,4,,3,,5,,2h[8:1],,,,8b,,7,,6,,5,,8x/4x,,1,,2,,3,,
{32}6b,,5,,8,,3,,7h[8:1],,,,3b,,4,,1,,6,,2h[8:1],,,,
{16}7,1,6,2,
{6}5bh[12:1],3bh[12:1]/8bh[12:1],1bh[12:1]/7bh[12:1],8bh[12:1]/4bh[12:1],2bh[12:1]/5bh[12:1],3bh[12:1]/8bh[12:1],
{8}6bxh[4:1]/1bx,,,,3x-8[8:1]/5x-8[8:1],,35,,
{8}1xh[4:1]/7xh[4:1],,,,8x-3[8:1]/7x-3[8:1],,78,,
{8}2xh[4:1]/4xh[4:1],,,,5x-1[8:1]/3x-8[8:1],,35,,
{8}2xh[4:1]/6xh[4:1],,,,3x-8[8:1]/7x-4[8:1],,37,,
{16}1b/5b,,3,4,2b,,7-4[8:1],8,6b,8,7b,,3,,2b/5b,,
{16}7,5,6b,5,7,,3-8[8:1],4,2b,4,3b,,5,,7b,8x,
{16}6,2,1,3,5b,4,6-1[8:1],2,5b,4,6b,,3,,2xb/8xb,,
{16},,2b/8b,,{32}1xb-5b[8:1],2,3,4,1xb,8,7,6,{48}1xb,B1f,Cf,B5f,
&inote_6=(200)
{4},,,,,,,
{4}2x-8b[4:2]/1x-5b[4:2],,,,{4}3x-7[2:1]/4x-1-6[2:1],,,,{4}5xv3<1[4:3],,,,{4}Ch[2:1],,,,
{4}3xh[1:1],,B7,,{4}4xh[1:1],,B8,,{4}5xh[1:1],,B1,,{4}6xh[8:8],,B2,,
(190)
{4}1,,64,,
(175)
{4}B2,,B3,,
(160)
{4}B4,,B5,,
(133.3)
{4}Chf[8:16]/B1/B8,{32},,,,,,,,E8,,,,,,,,,,,,A6,,D6,,,,,,,,B5,,
{32},,,,,,D8,,A8,,,,,,,,,,,,,,,,
(200)
{8}5hxb[2:6],,,,,,,,
{8},,,,,,,,
{8}3h[1:2],,,,,,,,
{8},,,,,,,{16}E8,E7,{8}Chf[8:3],
{8},,1bxw5[2:1],,,,,
{8},,,,4x/6x,,,,
{8}2^4[8:1],2,,7^5[8:1],7,,1-5[8:1],1,
{8},8-4[8:1],8,,E2,E3,E4,,
{8}3b/5b,3,37,3,36,36,3,3/5bxh[4:1],
{8}3,3,3,3/5b,3/6b,3/5b,3,3-1[8:1]/6bxh[8:2],
{8},,7b,7,72,72,7,7/2b,
{8}7,7/3bx,7,7/1,7/2,7/1b,,3bx/4bx,
{8},1,8bx,1,5bx/6bx,5bx/6bx,,1bx,
{8}1,6bx,3,3bx,5bx,3bx,,6bx/5bx,
{8}2,2,8bx,2,4bx/3bx,4bx/3bx,,8bx,
{8}1,8bx,1,8bx,1bx,8bx,{16}4,5,4,5,
{16}3h[1:1],,,,,,8x,,8x,,7x,,7x,,6h[4:1],,
{16},,1,6,1,6,2,7,2,7,3,8,3,8,4xh[8:8],,
{8}8,8,1,1x-3[8:1],,1x-6[8:1],,1x,
{8},4,4,5,5,,C,,
{8}3h[1:1],7,7,7x-4[8:1],,7xpp5b[8:9],,7x,
{4},2,3,4,
{4}3h[8:1],3h[8:1],6h[8:1],6h[8:1],
{4}3h[8:1]/4h[8:1],3h[8:1]/4h[8:1],6h[8:1]/5h[8:1],6h[8:1]/5h[8:1],
{32}8bx<5[8:1],1,2,3,4b,,,,,,,,1bx^4b[8:1],,,,,,,,8bx^5b[8:1],,,,,,,,1bx,,,,
{8},3bx,3bx,8bx,8bx,,4bx/5bx,4bx/5bx,
{8},1bx-4b[8:1],,5bxv8b[8:1],,3bx,,7bx,
{8}2bx,8bx,2bx,8bx,1bx/2bx,1bx/2bx,,1bx-6b[8:1],
{8},5bxv2b[8:1],,7bx,,6bx,4bx,6bx,
4bx,,3bx/5bx,3bx/5bx,,8bx-5b[8:1],,2bx,
{8},
{16}Cf,,
{48}1bx/2bx,,,,,,,,3bx/4bx,,,,,,,,5bx/6bx,,,,,,,,7bx/8bx,,,,,,,,1bx/C,,,,,,,,5bx/C,,,,,,,,
(150)
{1}3bxh[4:5],
{1}4bxh[4:5],
{1}5bxh[4:5],
{1}6bxh[1:1],
{8}5,5,6,6,3,3,4,4,
5,5,6,6,3,3,5,5,
{16}4x,6,4,6,3,5,3,5,
3x,4hx[1024:1],3x,4hx[1024:1],5x,6hx[1024:1],5x,6hx[1024:1],
{16}12,,,87,,,45,,45,,,12,,,87,,
{16},,35,,35,,6,4,,4-2[12:1],,4,6,,A8,,
{16},,46,,46,,3,5,,5-7[12:1],,5,3,,A1,,
{16},,45,,45,,3,6,,3-1[12:1],,6,3,,C,,
{16},,36,,36,,4,5,,4-8[8:1],,5,4,,C,,
{16},,3,5,3,5,D6,D4,,E5/D5,,E4,E6,,4x/6x,,
{16},,6,4,6,4,D2,D8,,E1/D1,,E8,E2,,5x/3x,,
{16},,2,4,3,7,5,6,1,3,2,8,6,7,2bx,,
{16}6bhx[8:7],,2bx,2bx,,,3bx,,3bx,,3bx,,{24}2bx,3bx,4bx,5bx,,,
(155){16}3,5,3,6,5,6,3,5,4,6,4,5,2,Ch[16:1],,,
(160){16}6,5,6,3,4,3,6x,5x,4x,3x,4x,5x,6x,Ch[16:1],,,
(165){16}2,4,3,7,5,6,3,5,4,6,4,5,4,Ch[16:1],,,
(170){16}6,5,6,3,4,3,5,4,6,3,7,2,8,1,C,,
(180){16}3x,4x,5x,6x,3x,4x,5x,6x,3x,4x,5x,6x,3xh[8:1],,,,
(185){16}6x,5x,4x,3x,6x,5x,4x,3x,6x,5x,4x,3x,6xh[8:1],,,,
(190){16}3,4,3,4,3,4,3,,6,5,6,5,6,5,6,,
(195){16}2,3,2,3,2,3,2,,7,6,7,6,7,6,7,,
(200){16}2,1,2,1,2,1,2,1,2,1,2,1,2,1,2,1,
2,1,2,1,2,1,2,1,2,1,2,1,2,1,2,1,
{32}2x,3,4,5,6,7,8,1,2x/7x,6,5,4,3,2,1,8,7x/2x,
3,4,5,6,7,8,1,2x/7x,6,5,4,3,2,1,8,7x/2x,3,4,5,6,7,8,1,2x/7x,6,5,4,3,2,1,8,7x/2x,3,4,5,6,7,8,1,2xb/7xb,,
{16},,,
1b/6b,,3,4,2,,38,,6,5,7,5,6-2[8:1],,6,,
{8}1b-4b[8:1]/6b,,1b<6b[8:1]/4b-6b[8:1],,1b-5b[8:1]*-3b[8:1]/4bx,,{48}1xb,Cf,,,,,{8},
{16}4x/7x,,6,5,7,,1x/5x,,3,4,2,4,1-4[8:1],,8,,
{8}1b/6b,,1-5[8:1],1,1-6[8:1]/4-8[8:1],,{48}1b/4b,,,,,,{8},
{16}1b/5b,,7,8,6,8,7h[8:1],,5,6,4,5,3,4,2,,
{16}4b/8b,,2,1,3,1,2h[8:1],,4,3,5,4,6,5,7,,
{16}1b/6b,,3,4,2,4,3h[8:1],,6,8,7,1,8,2,1,3,
{32}
2b,1,8,7,{8}6h[4:1],,{32}4b,3,2,1,{8}8h[32:7],,
{32}1pp4[2:1]/7qq4[2:1],26,35,4,{8},
{8}1b/7b,,,,,,,,
{16}1^3[8:1],,,,8,7,6^4[8:1],,,,1,2,3,,,,
{8}34,,78,78,,12,12,,
{16}8^6[8:1],,,,1,2,3^5[8:1],,,,8,7,6,,,,
{8}45,,E8/B7/B8,E8/B7/B8,,E2/B2/B1,E2/B2/B1,,
{8}36,,A8/E8,E8/A8,,E2/A1,E2/A1,,
{16}1,8,1,8,1,8,1,8,1,8,{16}A1,A2,A3,
A4,A5,A6,A7,A8,{24}E1,E2,E3,E4,E5,E6,E7,E8,B1,B2,B3,B4,B5,B6,B7,B8f,,,,,,
{16}8bx,7,6,5,4,,1bx,2,3,4,5,,7bx,6,5,4,
{16}3,,2bx,3,4,5,6,,1bx,2,3,4x/5x,6,7,8,,
{16}3bx,4,3,4,3,,6bx,5,6,5,6,,2bx,4,2,4,
{16}2,,7bx,5,7,5,7,,1bx,8,1,8x,1,8,1,,
{16}6,5,6,4,6,,3,4,3,5,3,,6,5,6,7,
{16}6,,3,4,3,2,3,,6,5,6,3,4,3,C,,
{16}2bx,2x,2x,2x,2x,,7bx,7x,7x,7x,7x,,E7/B7/B6/B2/B3/E3,,,,
{6}1bx/Cf,6bx/Cf,4bx/Cf,7bx/Cf,2bx/Cf,8bx/Cf,
{8}3bxh[4:1]/5bxh[4:1],,,,3bx-6[8:1]/5bx-2[8:1],,,,
{8}8bxh[4:1]/7bxh[4:1],,,,8bx-2[8:1]/7bx-1[8:1],,,,
{8}3bxh[4:1]/4bxh[4:1],,,,4bx-2[8:1]/3bx-1[8:1],,,,
{8}5bxh[4:1]/7bxh[4:1],,,,7b-4x[8:1]/5b-8x[8:1],,,,
{24}2bx,3bx,4bx,{16},,{24}7bx,6bx,5bx,{16},,{24}1bx/8bx,,,{24}1bx/8bx,,,{16},,{24}1bx,2bx,3bx,
{16},,{24}8bx,7bx,6bx,{16},,{24}7bx,6bx,5bx,{24}2bx,3bx,4bx,{24}Cf,,,{16},,{24}2bx/1bx,3bx/8bx,4bx/7bx,
{16},,,,{24}7bx/8bx,6bx/1bx,5bx/2bx,{16},,3bx/6bx,,4bxv3b[8:1]/5bxv6b[8:1],,,,4bx/5bx,,
{16},,4bx/5bx,,{32}1b-5[8:1],2,3,4,8b,7,6,5,{48}1b,B1,Cf,B5,
