&title=Cosmica
&artist=Nhato
&first=0
&des=NekoMuseigen
&lv_5=13+
&inote_5=(110){1},,
{8}
5h[8:6],,,,1h[8:4],,,6,
{24}
7-3[8:2],,,,,8,,,,4h[8:5],,,
,,,,,,,,,3,,,
2-6[8:2],,,,,1,,,,5h[8:5],,,
,,,,,,,,,7,,,
8q1[8:4],,,,,,,,,,,,
,,,,,,,,,,,,
{8}4h[8:4]/6,,3,,8h[8:3],,7,1,
{24}
7/2h[24:5],,,,,1,2,,,1h[8:2],,,
2,,,5h[8:2],,,6,,,4,,,
6/3h[24:5],,,,,4,3,,,4h[8:2],,,
3,,,8h[8:2],,,7,,,1,,,
7p4[8:4]/2q5[8:4],,,,,,,,,,,,
,,,,,,,,,,,,
4/6h[24:5],,,5,,5,6,,5>2[32:6],,,,
6,,,,,,5h[24:5],,,,,4,
5,,,3,,3,4<7[16:2],,3h[24:4],,,,
4>1[16:2],,,3,,,4,,5,,,6,
5h[24:5],,,6,,6,5<8[8:1],,,7,,,
4h[24:6],,,,,,5,,3,4,,5,
4h[24:5],,,5,,6,5,,4,5<3[8:2],,,
6,,,7h[8:2],,,,,,,,,
5/3h[24:5],,,4,,4,3,,5,4h[8:1],,,
6>3[8:1],,,7,,,8h[8:2],,,,,,
2h[24:5],,,1,,1,2,,8,1>4[8:1],,,
7,,,6h[8:3],,,,,,1,2,3,
4h[24:5],,,5,,5,4,,6,5<8[8:1],,,
4,,,3,,3h[24:7],,,,1,8,7,
6h[24:5],,,5,,5,6,,4,5,,,
1s5[16:4],,,,,,,,,,,,
6h[8:1],,,,,,6h[8:1]/5,,,,,,
6,,5,7,,,7,,5,6,,,
3h[8:1],,,2,,,3h[8:1]/4,,,,,,
3,,4,2,,,2,,4,1h[8:1],,,
4,,2,4,,,56,,7,5,,8,
3h[24:2],,1,2h[24:2],,8,1h[24:2],,7,8h[24:2],,6,
3,4,3,6,5,6,2,4,3,7,5,6,1h[8:1],,,,,,
2bz6[6:1]/7bs3[6:1],,,1b/8b,,,,,,,,,
{8}5h[8:2]/1,6,3v8[8:1],8V24[8:1],6h[24:2],6,7v4[8:1],4V68[8:1],1h[24:2],1,
{24}1,,1,8,,8,7,,7,6h[8:1],,,
{8}5-1[8:1],1-5[8:1],8,4,7-3[8:1],3-7[8:1],1,5,
{24}2-5[32:3],,,2-7[32:3],,,2-6[32:3],,,2V84[32:6],,,2,,,,,,
3bw7[32:3],,,2b,,,,,,,,,
{8}4h[8:2]/7,3,6q2[8:1],2<7[8:1],4h[24:2],4,3q7[8:1],7<4[8:1],8h[24:2],8,
{24}8,,8,1,,1,2,,2,3h[8:1],,,
4,,4,2,,2,4h[8:1],,,5h[24:2],,6,5,,5,7,,7,5,,
5,6,,1,8,,2,7,,3,6,,4,5,,1,8,,4,5,,1z5[24:5],8bs4[24:4],,,7b,,,,,,,,,
63,,,2,,,3h[8:2]/5V71[32:5],,,4,,,5,,,4,,,5v2[16:2],,,,,6,5v8[8:1],,,7,,,4,,,3h[24:6],,,4,,,{24}1,2,8,
1q5[8:1],,,6,,6,,,7h[24:12],,,,
5,,,4,,4,,,3h[48:7],,
{48},6,5,4p1[16:9],{8},,8,,6,6,8h[8:2],,
{24}5-1[16:2],,,,,,54,,,3,,,7h[8:2]/2V46[32:5],,,1,,,2,,7,,,,8v3[16:2],,,,,7,8v5[8:1],,,6,,,1,,,2h[24:6],,,1,,,{16}4,3,
5q1[8:1],,,1,5,,2,,
7/3h[16:3],,6,{48}6h[24:4],,,,,,{48}3,4,5qq2[16:11],{24},,,8h[24:24],,,,,,,,,,,,,,,,,,,,,,,,{24}
1-4[8:1],,,,,,1/2h[8:2],,,,,,1-4[8:1],,,,,,81,,,,,7,
1-4[8:1],,,,,,1/2h[8:2],,,,,,1-4[8:1],,,8,,,7/1,,7,,,8,
1-4[8:1],,,2,,,1/3,,,2,,,1-4[8:1],,,,,,1/8h[24:2],,,8,,,
1-4[8:1]/7,,,,,6,1,,,5h[8:1],,,1-4[8:1],,1,,,,14,,,5,,5,
8-5[8:1],,,,,1,8,,,2h[8:1],,,8-5[8:1],,,7,,,18,,,2,,,
8-5[8:1]/3h[8:1],,,,,3,8,,,4,,,8-5[8:1]/5,,,7,,,4h[24:2]/8,,,4,,,
45,,4,6,,6,5,,5,8,,8,3,,3,4,,4,1,,1,8,,8,
2,1,2,7,8,7,2,1,3,7,8,6,
{48}1,2,3,4,5,6,7,8,1,2,3,4,{8}5h[8:2],,
6-2[32:4],2-6[32:4],1h[8:1],,3v8[8:1],8v5[8:1],6h[24:3],,
7v4[32:4],4v1[32:4],2h[8:1],,3-7[8:1],7-3[8:1],8h[24:3],,
6-2[32:3],2-6[32:3],4v1[8:1]*v7[8:1],,,,
8v3[8:1],71,8/5v8[8:1],,2v5[8:1]/5,,2/7h[8:3],,
{24}8bV64[32:5],,,1b,,,
8b/2b,,,3,,,2<7[8:1],,3,4,,4,
2>5[8:1],,,6,,,2/7p3[8:1],,8,8,,,
73,,,2,,,1-5[8:1],,8,7,,7,
1<6[8:1],,,8,,,4V28[32:5],,3,3,,,
45,,,6,,,7>2[8:1],,6,5,,5,
7<4[8:1],,,3,,,7/2-6[8:1],,,1-7[32:3],,,
2-4[32:3],,,1-5[8:1],,,2<3[32:7],,,,,,
,,,,,,
8h[8:1],,3,3,,,1b/6bv1[8:1],,7,8,,8,
6>3[8:1],,,4,,,6/2qq1[32:5],,1,1,,,
7,,6,6,,,5<8[8:1],,4,3,,3,
5>2[8:1],,,4,,,1s5[6:1],,8,8,,,
17,,,6h[8:1],,,3,4,3,6,5,6,3,4,2,6,5,7,
3h[24:2],,4,2h[24:1],,5,1-3[32:3],,1,6-2[8:1],,,1-5[8:1],,,6-8[32:3],,,1-4[32:3],,,6v3[8:1],,,1>7[16:3],,,,,,,,,,,,
{24}
8-4[8:1],,,3,,3,8,,,1,,,7-3[8:1],,,3,,3,7,,,2,,,
1/8-4[8:1],,,7,,3,8,,,1,,,7-3[8:1],,,6,,4,7,,,2,,,
4/8-4[8:1],,,7,,5,8,,,3,,,7-3[8:1],,,6,,5,7,,,1h[8:2],,,
8,,,8,,8,1,,1,,,1,,,1,8,,8,1,,,1,,,
{8}2<7[8:2],,1,,,6>3[8:2],5,,2<7[8:2],,1,,6>3[8:2],6,5,,
2<7[8:2],,1,,,6>3[8:2],5,,2<8[16:3],,1,,,6>4[16:3],5,,3-6[8:4],,,,
