&title=reunion
&artist=Tatsh
&first=-0.1
&des=micavro
&lv_5=14+
&inote_5=(184){1},{4},,
{16}1x,8x,2,7,3,6,4,5,4x,5x,3,6,2,7,1,8,
{4}2x-6[8:1],8-4[8:1],1-5[8:1],7-3[8:1],2-6[8:1],8-4[8:1],1-5[8:1],6-2[8:1],3-7[8:1],5-1[8:1],4-8[8:1],6-2[8:1],3-7[8:1],8V64[8:1],
{16}1xV35[8:1],,1x,,7xp3[8:1],,,1,
{4}1q5[8:1],8p4[8:1],2q6[8:1],7q3[8:1],4p8[8:1],6q2[8:1],3p7[8:1],5q1[8:1],2q6[8:1],8V64[8:1],1V35[8:1],7V52[8:1],1V37[8:1],Cf,
{32}5x,,,,E6,B6,B7,E8,,,,,E4,B3,B2,E2,
{8}
1x-5[8:1],8-4[8:1],1,8,,2-6[8:1],1,2,,8-4[8:1],1,8,,3-6[8:1],6,3,
8-4[8:1],1-5[8:1],8,1,,7-3[8:1],8,7,,1-5[8:1],8,1,,6-3[8:1],3-6[8:1],6,
2-6[8:1],1-5[8:1],2,1,,3-7[8:1],B2,3,,6-2[8:1],B5,6,,4-1[8:1],1,4,
7-3[8:1],8-4[8:1],7,8,,6-2[8:1],B7,6,,3-7[8:1],B4,3,,5-8[8:1],8,5,
{8}1<6[12:1],2,3,4>1[12:1],5,6,7<4[12:1],8,1,2<7[12:1],3,4,5,6,{16}7,8,7,8,
{8}7>2[12:1],6,5,4<7[12:1],3,2,1>4[12:1],8,7,6<1[12:1],5,4,3,2,{16}1,8,1,8,
{8}1-6[12:1],B2,3,4-1[12:1],5,B6,7-4[12:1],B8,1,2-7[12:1],3,4,5,6,{16}7,8,7,8,
{8}7-2[12:1],6,B5,4-7[12:1],B3,2,1-4[12:1],8,B7,{16}6,5,6,5,7,4,7,4,8,3,8,3,1,2,
{48}3x/8bx<6[8:1],B8,C,B4,,,,,,,,,{4}8/3<5[8:1],3,
{48}6/1b>3[8:1],B1,C,B5,,,,,,,,,{4}1/6>4[8:1],6,
{48}3/6b<1[8:1],B6,C,B2,,,,,,,,,{4}6/3<5[8:1],3,
{48}7/4bx>1[8:1],B4,C,B8,,,,,,,,,{4}4/7<5[8:1],7,
{48}2<8[8:1]/7b<5[8:1],B7,C,B3,,,,,,,,,{4}7/2>4[8:1],2,
{48}7>1[8:1]/2b>4[8:1],B2,C,B6,,,,,,,,,{4}2/7<5[8:1],7,
{48}2>4[8:1]/5bx<7[8:1],B5,C,B1,,,,,,,,,{4}5/2<8[8:1],2,
{48}6>4[8:1]/3b>1[8:1],B3,C,B7,,,,,,,,,{4}3/6<8[8:1],6,
{48}4/8bx<5[8:1],B8,C,B4,,,,,,,,,{4}8/4>1[8:1],4,
{48}6/2bx>5[8:1],B2,C,B6,,,,,,,,,{4}2/6<1[8:1],6,
{48}2/6b>3[8:1],B6,Cf,B2,,,,,,,,,{4}6/2<7[8:1],2,
{48}8x/4b>1[8:1],B4,Cf,B8,,,,,,,,,{4}4/8<5[8:1],8,
{48}3x-7[12:1]/7bx<4[8:1],B7,Cf,B3,,,,,,,,,{4}7x/3x>8[8:1],3,
{48}5x-1[12:1]/1bx>4[8:1],B1,Cf,B5,,,,,,,,,{4}1x/5x<8[8:1],5,
{48}1x-5[12:1]/5bx<8[8:1],B5,Cf,B1,,,,,,,,,{4}5x/1x>4[8:1],1,
{48}7x-3[12:1]/3bx>8[8:1],B3,Cf,B7,,,,,,,,,{4}3x/7x<4[8:1],7,
{8}1>4[8:1],,C,7<4[8:1],,C,3>8[8:1],,,C,7<4[8:1],,{16}8,1,2,3,8,7,6,5,
{8}4>1[8:1],,C,8<5[8:1],,C,3>8[8:1],,,C,4<7[8:1],,{16}1,2,3,4,1,8,7,6,
{8}3-6[8:1],,C,1-4[8:1],,C,7-4[8:1],,,C,8-5[8:1],,{16}3,,,,1-4[8:1],8,7,6,
{4}1/5-2[8:1],5/3-6[8:1],7-4[8:1]/3,7/1-5[8:1],1/8-4[8:1],
{8}8/2-6[8:1],6-2[8:1],2-7[8:1],5,5,,
{8}4/5h[4:4],3,2,1,3,2,1,8,3,2,8/1h[4:4],7,6,5,4,3,7,6,5,4,7,6,4/5<8[8:1],,3,2,1,8,2,3,4>1[8:1]/5,,8,6,4,2,7<4[8:1],,2,3>4[8:4],,,,,,8x,1,2,3>3[8:5],,,,,,,,
{16}4x,5,4,5,3,6,3,6,2,7,2,7,1,8,1,8,
{16}2x,1,2,1,3,8,3,8,2,3,4,5,1,8,7,6,8x,7,8,7,1,6,1,6,8,1,2,3,7,6,5,4,
{16}2x,6,2,6,3,7,3,7,1,2,3,4,2,3,4,5,3x,8,3,8,2,7,2,7,3,4,5,6,4,5,6,7,
{16}2x,1,3,8,2,1,3,8,B5,B4,B3,B2,B6,B7,B8,B1,3x,6,4,5,3,6,4,5,E3,E2,E1,E8,E4,E5,E6,E7,
{16}3x,4,2,5,3,4,2,5,B3,B4,B5,B6,E4,E5,E6,E7,2x,7,1,8,2,7,1,8,E1,E2,E3,E4,B1,B2,B3,B4,
{16}2x,4,2,4,1,3,1,3,B1,B2,B3,B4,B5,B6,B7,B8,5x,3,5,3,6,4,6,4,E6,E5,E4,E3,E2,E1,E8,E7,
{16}2x,6,2,6,3,7,3,7,1,2,3,4,5,6,7,8,5x,1,5,1,6,2,6,2,E7,E6,E5,E4,E3,E2,E1,E8,
{16}3x,7,2,6,3,7,2,6,B1,B2,B3,B4,B5,B6,B7,B8,6x,3,5,2,6,3,5,2,1,2,3,4,8,7,6,5,
{16}3x,6,3,6,2,5,2,5,1,2,3,4,8,7,6,5,
{32}B1,B2,B3,B4,B5,B6,B7,B8,E1,E2,E3,E4,E5,E6,E7,E8,1x,2x,3x,4x,5x,6x,7x,8x,1x,2x,3x,4x,5x,6x,7x,8x,
{48}6x/1bx>3[8:1],B1,C,B5,,,,,,,,,{4}1<7[8:1]/6>4[8:1],1/6,
{48}3/8bx<6[8:1],B8,C,B4,,,,,,,,,{4}8>2[8:1]/3<5[8:1],8/3,
{48}6/3b>8[8:1],B3,C,B7,,,,,,,,,{4}3<5[8:1]/6<8[8:1],3/6,
{48}2/5bx<8[8:1],B5,C,B1,,,,,,,,,{4}5>3[8:1]/2<8[8:1],5/2,
{48}6<8[8:1]/2b>4[8:1],B2,C,B6,,,,,,,,,{4}2<8[8:1]/6>4[8:1],2/6,
{48}3>1[8:1]/7b<5[8:1],B7,C,B3,,,,,,,,,{4}7>1[8:1]/3<5[8:1],3/7,
{48}8x<6[8:1]/4bx>2[8:1],B4,C,B8,,,,,,,,,{4}4<6[8:1]/8>2[8:1],4/8,
{48}2x>4[8:1]/6bx<8[8:1],B6,C,B2,,,,,,,,,{4}6>4[8:1]/2<8[8:1],2/6,
{48}5x/1bx>4[8:1],B1,C,B5,,,,,,,,,{4}1/5<8[8:1],{48}2bx/5,B2,C,B6,,,,,,,,,
{48}3/7bx<4[8:1],B7,C,B3,,,,,,,,,{4}7/3>8[8:1],{48}6bx/3,B6,C,B2,,,,,,,,,
{48}7/3b<6[8:1],B3,C,B7,,,,,,,,,{4}3/7>2[8:1],{48}4bx/7,B4,C,B8,,,,,,,,,
{48}1x/5b<8[8:1],B5,C,B1,,,,,,,,,{4}5/1>4[8:1],{48}8bx/1,B8,C,B4,,,,,,,,,
{48}6x/2bx>5[8:1],B2,Cf,B6,,,,,,,,,{4}2x/6x<1[8:1],{48}3bx/6,B3,Cf,B7,,,,,,,,,
{48}4x/8bx<5[8:1],B8,Cf,B4,,,,,,,,,{4}8x/4x>1[8:1],{48}7bx/4,B7,Cf,B3,,,,,,,,,
{48}8x/4bx>1[8:1],B4,Cf,B8,,,,,,,,,{4}4x/8x<5[8:1],{48}1bx/8,B1,Cf,B5,,,,,,,,,
{48}7x/3bx>8[8:1],B3,Cf,B7,,,,,,,,,{4}3x/7x,{48}2bxh[4:3],B2,Cf,B6,,,,,,,,,{4},,
{8}1,1-6[8:1],1,3/1,3-8[8:1],3,3/5,5-2[8:1],5,5/7,7-4[8:1],7,7/1,8,1,8,5/4,4-1[8:1],4,4/6,6-3[8:1],6,6/8,8-5[8:1],8,8/2,2-7[8:1],2,2/4,5,4,5,8/1,,,,,1-5[8:1],,,1w5[8:1],,,,,8-4[12:1],,,1w5[2:5]/5w1[2:5],3w7[8:19]/7w3[8:19],
