&title=ultradiaxon-N3
&artist=nitro(lowiro)
&first=0
&lv_5=14
&des=Ai-Chan
&des_5=Ai-Chan
&inote_5=
(150){4},,,,{2}1-5[4:1],
8-4[4:1],
{4}2-6b[8:1],8-5[8:1]*-3[8:1],8,{8}2h[32:1],6h[32:1],
{16}1h[16:3],,,5,,,{8}6,{16}3,4,,2h[16:3],,,{8}5,
{16}7,8,,6h[16:3],,,{8}1,{16}1h[16:3],,,7h[16:3],,,{8}2h[8:1],
{16}5,4,,6h[16:3],,,{8}5,{16}3,4,,2h[16:3],,,{8}6,
{16}7,8,,6h[16:3],,,{8}2,{16}1,8,,2h[16:3],,,{8}1,
{16}2,8,,3/7,,,{8}2>7[8:7],{16}6,,,7,,,{8}8,
{16}1,,,2,,,{8}3,{16}4,,,5,,,{8}6,
{16}3,4,,2h[16:3],,,{8}5,{16}6,5,,7h[16:3],,,{8}4,
{2}2h[8:3]/6h[8:3],{8}1-5[8:1],8-4[8:1],,,{4}2,
{8}2,4,2,4,{16}2,6,,6,
{4}2,{8}2,8,2,8,{16}2,6,,6,
{4}1,{8}1,5,1,5,{16}1,7,,7,
{4}1,{8}1,7,1-5[8:1],8,{4}1,
{16}3xh[16:1]/7x-4[16:1],,,7x/3x,,,,,6xh[16:1]/2x-5[16:1],,,2x/6x,,,,,7xv4[16:1]/3xv8[16:1],
,,7x/3x,,,,,2xv5[16:1]/6xv1[16:1],,,2x/6x,,,,,7,
7h[8:1],,3,{8}3h[8:1],{16}5,5h[8:1],,1,{8}1h[8:1],{24}7,6,5,2,3,4,
{1}8b,
{24}8/4,7,6,5,,,2/6,3,4,5,,,{2}7-3b[8:1]/1-5b[8:1],
{8}2-5[8:1]/6-1[8:1],1/5,{4}2/6>3[8:1],{16}2/6<8[8:1],2,,,{4}6/4,
{8}3/1,{16}4,4,{8}8,3,{16}7>1[8:1]/3-5[8:1],6,{8}5,{4}7/3,
6/2-5[8:1],{8}6/2-8[8:1],7,{16}6/2>5[8:1],6,,,{4}2/8,
{8}7<4[8:1],3,7>2[8:1],1,{16}3,3h[8:1],,E4,E5,E6,{8}E7,
{4}7x-4[8:1]/3x-8[8:1],7/3<6[8:1],{16}7/3>1[8:1],7,,,{4}5/3,
{8}6/8,{16}5,5,{8}1,6,{16}2<8[8:1]/6-4[8:1],3,{8}4,{4}2/6,
3/7-4[8:1],{8}3/7-1[8:1],2,{16}3/7<4[8:1],3,,,{4}7/1,
{16}1,1,{8}1,{4}2h[8:1]/8h[16:3],{2}1-5v7b[4:1]*-5v3b[4:1],
{8},,2h[8:1],5,2h[8:1],5,{16}3,4,,4,
{8}3h[8:1],5,3h[8:1],5,4-8[8:1],5,,,7<4[8:1],
8,1,2<7[8:1],3,4,5>2[8:1],6,
7,8,1,2<7[8:1],3,4,5-1[8:1],6,
{4}7-5[8:1],{8}7-1[8:1],{16}3,3,{8}7,2,4,4,
3/5,6,4-6[8:1],{16}7,7,{8}4>1[8:1],8,{4}E8/A7/E7,
{6}6x/4x,{12}3,3/5,,6,2,4,3,7,5,6,
{6}4-7[8:1],{12}2,2-5[8:1],,8,{6}8-3[8:1],{12}6,6-1[8:1],,,{2}4-8b[8:1],
{4}2b/6b,{16}1<6[8:1],2,3,4,
{4}1,{16}4<7[8:1],3,2,1,{4}4,{16}1,8,1,8,
{4}3<7[4:1]/7x-4[8:1],3/7>2[16:3],5x,{16}6>3[8:1],7,8,1,
{4}6,{16}1>4[8:1],8,7,6,{4}1,{8}6h[16:1],6h[16:1],
3v6[8:1],6>1[4:1],,,{4}8b,{20}8>3[8:1],7,6,5,4,
{4}8,{20}5>2[8:1],6,7,8,1,{4}5,{20}1,8,7,6,5,
{2}8-4[8:1],{4}6b/2b,{20}1<6[8:1],2,3,4,5,
{4}1,{20}4<7[8:1],3,2,1,8,{4}4,{20}8,1,2,3,4,
{4}1-3v4-6[4:1],,,1h[4:1],
{8}C,,,,,,,3,
3pp2[2:1],,,7h[8:3],,,,,5<3[2:1],
,,4h[8:3],,,,,{4}2,
{8}8-4[8:1],1-5[8:1],,,{4}6,
2-5[8:1],{8}6,6,{4}7<2b[4:3],3,
1,8,7,6,
5-1[8:1],4,2-5[8:1],6,
{2}7h[8:3]/3h[8:3],{8}8-4[8:1],1-5[8:1],,,{4}7,
{8}7/4,4,7,5,{16}7,3,,3,
{4}7,{8}7/2,2,7,1,{16}7,3,,3,
{4}8,{8}8/5,5,8,4,{16}8,2,,2,
{4}8,{8}8/3,3,8-4[8:1],1,{4}8,
{16}6xh[16:1]/2x-5[16:1],,,2x/6x,,,,,3xh[16:1]/7x-4[16:1],,,7x/3x,,,,,2xv5[16:1]/6xv1[16:1],
,,2x/6x,,,,,7xv4[16:1]/3xv8[16:1],,,7x/3x,,,,,2,
2h[8:1],,6,{8}6h[8:1],{16}4,4h[8:1],,8,{8}8h[8:1],{24}2,3,4,7,6,5,
{1}1b,
{24}1/5,2,3,4,,,7/3,6,5,4,,,{8}1-5[8:1],5-1[8:1],,,8,
8,1>4[8:1],{16}7,6,{8}5>2[8:1],7,{4}8h[8:1],
{16}7h[8:1],,,1,{8}8,2,3/7,{16}8bx,8bx,{4}8bx,
{8}1,1,{16}8<5[8:1],1,,1,{4}8>3[8:1],6,
{16}7h[8:1],,,4,{8}5,3,5/2,1,{4}4/7h[8:1],
{24}1/8h[8:1],2,{12}3,{24},,7/1h[8:1],6,{6}5,{24}2/8h[8:1],3,{12}4,{24},,{8}1/7,2,
6,{16}1,7,,8,{8}2,1-5[8:1],2/8,{4}1,
{8}8,8,{16}1>4[8:1],8,,8,{4}1<6[8:1],3,
{8}2,3,{12}7,6,5,{16}1,2,3,4,{20}1,8,7,6,5,
{4}2h[8:1],2h[8:1],2h[8:1],{8}7<4[8:1],6,
{24}8b,1,2,3,,,,,,1b/2b,8/3,7/4,{2}6/5-1[8:1],
{8}2/8,3,8-2[8:1],{16}3,3,{8}8<5[8:1],4,{4}A3/E4/E3,
{8}6x/2xq5[8:5],,,7,{2}7-4b[8:1],
{4}2xh[8:1],{8}6-4[8:1],{16}3,3,{8}6,1h[8:1],{16}7-4[8:1],8,,8,
{4}7,{8}5/1-5[8:1],2,6-8b[8:1],7,{4}1,
{12}2,2,4,3,,7,2x,8,4x,7x,1,5,
{1}2bh[4:3],
{16}3,4,3,4,2,5,2,5,1,6,1,6,8,7,8,7,
1,2,3,4,8,7,6,5,1,2,3,4,5/1,6,7,8,
{8}1>4[8:1],{16}7,7,{8}1<6[8:1],{16}5,5,{8}1-5[8:1],4,1,7,
8-4[8:1],{16}3,3,{8}8,1,2<7[8:1]*>5[8:1],1,{4}2,
{16}6,5,6,5,7,4,7,4,8,3,8,3,1,2,1,2,
8,7,6,5,4/8,3,2,1,8/4,3,2,1,8/3,2,1,8,
{8}2/7<4[8:1],{16}1,1,{8}7>2[8:1],{16}3,3,{8}7-3[8:1],4,7,1,
2-6[8:1],{16}8,8,{8}2,7,{4}8w4[8:1],8,
{2}2-6b[8:1],{4}8b/4b,{20}3<6[8:1],2,1,8,7,
{4}3,{20}8<5[8:1],1,2,3,4,{4}8,{20}2,6,2,6,2,
{4}3x<7[4:1]/7-4[8:1],3/7>2[16:3],5x,{20}6>3[8:1],7,8,1,2,
{4}6,{20}1>4[8:1],8,7,6,5,{4}1,{20}6,2,6,2,6,
{10}1,3,5,7,1,3b,{20},,,8>3[8:1],7,6,5,4,
{4}8,{20}5>2[8:1],6,7,8,1,{4}5,{20}1,8,7,6,5,
{2}8-4[8:1],{12}7,7,7,{60}5,,,4,,,{20}3,2,1,
{12}5,5,5,{60}8,,,1,,,{20}2,3,4,{12}1,1,1,{60}5,,,4,,,{20}3,2,1,
{1}8/7b<1[4:3],
A7/E7/E8,
E
